NEON WORLD
SOUND HOLIC feat. Nana Takahashi

ADVANCED

Level: 7
BPM: 154-164
Notes: 644

BPM: 154
1
⑥④口⑤ |①-②-|
口口③口 |③-④-|
口②口口 |⑤---|
口口①口 |⑥---|
2
口口口口 |①---|
①口②口 |②-③-|
口③口口 |④---|
口口④口 |----|
3
口口口口 |①-②-|
口①④口 |③---|
口⑤②口 |④-⑤-|
⑥口口③ |⑥---|
4
口口口口 |①---|
口口口② |②-③-|
口口口③ |④---|
口口④① |----|
5
⑤口④⑥ |①-②-|
口③口口 |③-④-|
口口②口 |⑤---|
口①口口 |⑥---|
6
口口口口 |①---|
口口②① |②-③-|
口③口口 |④---|
口口④口 |----|
7
口②①口 |①-②-|
③口口⑧ |③-④-|
④口口⑦ |⑤-⑥-|
口⑤⑥口 |⑦-⑧-|
8
①①口口 |----|
口口口口 |----|
②口口口 |①---|
③口口口 |②-③-|

BPM: 164
9
口口①① |①---|
③③口口 |--②-|
口口②② |----|
口口口口 |③---|
10
①①口口 |①---|
口口④口 |----|
口口③口 |②--③|
口口②口 |--④-|
11
①①口口 |①---|
口口③③ |--②-|
②②口口 |----|
口口口口 |③---|
12
口口①① |①---|
口口口口 |----|
口口口口
口口口口

②口口⑥
③口口⑦
④口口⑧ |②③④⑤|
⑤口口⑨ |⑥⑦⑧⑨|
13
口②②口 |①---|
③③口口 |--②-|
口①①口 |----|
口口口口 |③---|
14
口口口口 |①---|
口口口④ |----|
①①口③ |②--③|
口口口② |--④-|
15
②②口口 |①---|
口口③③ |--②-|
①①口口 |----|
口口口口 |③---|
16
口口口口 |①---|
口口口口 |----|
①①①①
口口口口

口⑤口口
口口③口
口④口口 |②-③-|
口口②口 |④-⑤-|
17
②口口口 |①-②-|
③口⑤口 |③-④-|
④口⑥① |--⑤-|
口口⑦① |⑥-⑦-|
18
口口口口 |①-②-|
②⑥⑧④ |③-④-|
口口口口 |⑤-⑥-|
①⑤⑦③ |⑦-⑧-|
19
①口口② |①-②-|
①⑤口③ |③-④-|
口⑥口④ |--⑤-|
口⑦口口 |⑥-⑦-|
20
②⑥⑧④ |①-②-|
口口口口 |③-④-|
①⑤⑦③ |⑤-⑥-|
口口口口 |⑦-⑧-|
21
口⑤口② |①-②-|
口⑥口③ |③-④-|
①⑦口④ |--⑤-|
①口口口 |⑥-⑦-|
22
口口口口 |①-②-|
④⑧⑥② |③-④-|
口口口口 |⑤-⑥-|
③⑦⑤① |⑦-⑧-|
23
②口口① |①-②-|
③口⑤① |③-④-|
④口⑥口 |--⑤-|
口口⑦口 |⑥-⑦-|
24
④口口② |①-②-|
口口⑥口 |③-④-|
③⑦⑤① |⑤-⑥-|
口⑧口口 |⑦-⑧-|
25
②口口② |①---|
口口口口 |----|
①口口① |②---|
口口口口 |----|
26
②①①口 |----|
③口口④ |--①-|
口口口口 |--②-|
口口口口 |③-④-|
27
口②②口 |①---|
口口口口 |--②-|
口口口①
口口口口

口口口口
口口口口
④口口⑤ |--③-|
③口口口 |④-⑤-|
28
口⑤口口 |①---|
③②②① |--②-|
④口口口 |--③-|
口口口口 |④-⑤-|
29
④口口① |①--②|
口⑤②口 |--③-|
⑥口口③ |④--⑤|
口口口口 |--⑥-|
30
口口口③ |①---|
⑤口口④ |--②-|
口②②口 |--③-|
①口口① |④-⑤-|
31
③口口口 |①---|
④口口⑤ |--②-|
①②②口 |--③-|
口口口口 |④-⑤-|
32
口口口口 |①---|
口口口② |----|
口口③口 |--②-|
口④口① |③-④-|
33
口口口口 |----|
口口口口 |----|
口口口口 |----|
口口口口 |----|
34
④⑤⑤④ |----|
③⑥⑥③ |①-②-|
口②②口 |③-④-|
口①①口 |⑤-⑥-|
35
口口口口 |①-②-|
口口口口 |③---|
①口口① |----|
②③③② |----|
36
口①①口 |----|
口②②口 |①-②-|
③⑥⑥③ |③-④-|
④⑤⑤④ |⑤-⑥-|
37
①口口① |①-②-|
口②②口 |③-④-|
③口口③ |----|
④⑤口④ |--⑤-|
38
口口口口 |①-②-|
③②⑦口 |③-④-|
①口口⑥ |--⑤-|
④口⑤口 |⑥-⑦-|
39
口④④口 |--①-|
口⑤⑤③ |②-③-|
口口②口 |--④-|
口⑥⑥① |⑤-⑥-|
40
口口口口 |----|
口口口口 |----|
口口口口 |----|
口口口口 |----|
41
口口口口 |①--②|
②②②② |--③-|
③③③③
①①①①

口⑥⑤④
口口口口
口口口口 |④-⑤-|
口口⑧⑦ |⑥-⑦⑧|
42
⑤⑥口口 |----|
口口①口 |--①-|
口口口口 |②-③-|
②③④口 |④-⑤⑥|
43
口口口⑤ |----|
②口口⑥ |--①-|
③口①口 |②-③-|
④口口口 |④-⑤⑥|
44
口口⑥⑤ |----|
口口③口 |--①-|
口④口② |②-③-|
口口①口 |④-⑤⑥|
45
口口口④ |----|
口口口⑤ |----|
口口口口 |①-②-|
口③②① |③-④⑤|
46
②口⑥⑤ |----|
③口①口 |--①-|
④口口口 |②-③-|
口口口口 |④-⑤⑥|
47
口口口口 |----|
④口口② |--①-|
口⑤⑤口 |②-③-|
③口口① |④-⑤-|
48
①③③① |①-②-|
口④④口 |③-④-|
②口口②
口口口口

⑦口口⑦
⑥口口⑥
⑧口口⑧ |⑤-⑥-|
口⑤⑤口 |⑦-⑧-|
49
口②②口 |----|
①③③① |--①-|
⑤④④⑤ |②-③-|
⑥口口⑥ |④-⑤⑥|
50
④③③④ |----|
口②②口 |----|
口①①口 |①-②-|
口口口口 |③-④-|
51
口口口口 |----|
②①①② |--①-|
③⑤⑤③ |②-③-|
④口口④ |④-⑤-|
52
口③①口 |①-②-|
⑦口口⑦ |③-④-|
⑥口口⑥ |--⑤-|
⑤②④⑤ |⑥-⑦-|
53
口①①口 |--①-|
⑤②②⑤ |②-③-|
口③③口 |--④-|
④口口④ |⑤---|
54
③①①⑤ |①---|
口⑥⑥口 |--②-|
②口口④ |③-④-|
口口口口 |⑤-⑥-|
55
口口④口 |----|
⑤⑤口③ |--①-|
⑥⑥口② |②-③-|
口口①口 |④-⑤⑥|
56
口口口口 |①---|
口口口口 |----|
口口口口 |----|
①①口口 |----|
57
口口口口 |----|
口口口口 |----|
口口口口 |----|
口口口口 |----|
58
口口口口 |①---|
口口②② |--②-|
口口口口 |----|
口口①①
59
②②口口 |①---|
口口口口 |--②-|
①①口口 |----|
口口口口
60
口口口口 |①---|
②②口口 |--②-|
口口口口 |----|
①①口口
61
口口②② |①---|
口口口口 |--②-|
口口①① |----|
口口口口
62
口口口口 |①---|
①口口③ |②-③-|
口②④口 |--④-|
①口口③
63
口口口③ |①---|
①口④口 |②-③-|
口②口③ |--④-|
①口口口
64
①口口口 |①---|
口口④③ |②-③-|
①②口口 |--④-|
口口口③
65
③口口口 |①---|
①口口口 |②-③-|
③口②口 |----|
①口口口
66
口口口口 |①---|
①口口③ |②-③-|
口④②口 |--④-|
①口口③
67
口口口口 |①---|
①口③口 |②-③-|
口口口② |----|
①口③口
68
口②①口 |--①-|
③口口口 |②-③-|
④口口口 |④-⑤-|
口⑤口口
69
口口口口 |①-②-|
口口口③ |③-④-|
口④④② |----|
口口①口
70
①口口口 |①-②-|
口③②④ |③-④-|
①⑤⑥口 |⑤-⑥-|
口口口④
71
④口口① |①-②-|
②③⑥⑤ |③-④-|
④口口① |⑤-⑥-|
口口口口
72
口口⑤口 |--①-|
口口口④ |②-③-|
口口口③ |④-⑤-|
口①②口
73
口①口口 |①-②-|
②口口口 |③-④-|
③口口⑥ |⑤-⑥-|
口④⑤口
74
口③②口 |①-②-|
④口口① |③-④-|
⑤口口口 |⑤-⑥-|
口⑥口口
75
④口口口 |①-②-|
⑤口③口 |③-④⑤|
口口②口
口口口①
76
口口口① |----|
⑤口④② |--①-|
口⑥口③ |②-③-|
口口口口 |④-⑤⑥|
77
①口口口 |----|
口②口口 |--①-|
③口⑤口 |②-③-|
口④口⑥ |④-⑤⑥|
78
口③口口 |----|
②口④口 |--①-|
①⑤口口 |②-③-|
口口⑥口 |④-⑤⑥|
79
口④口口 |----|
③口⑤口 |----|
②口口口 |①-②-|
①①口口 |③-④⑤|
80
口口④口 |----|
口⑤口③ |--①-|
口口⑥② |②-③-|
口口①① |④-⑤⑥|
81
口口口口 |----|
③⑤⑤③ |--①-|
②④④② |②-③-|
口①①口 |④-⑤-|
82
①②②① |①-②-|
④口口④ |③-④-|
③口口③
口口口口

⑧⑧⑧⑧
口⑦⑦口
口⑥⑥口 |⑤-⑥-|
口⑤⑤口 |⑦-⑧-|
83
口口口口 |----|
②②口⑤ |--①-|
③③⑥① |②-③-|
④④口① |④-⑤⑥|
84
①②③④ |----|
①②③④ |----|
口口口口 |①-②-|
口口口口 |③-④-|
85
口口口口 |----|
口②④口 |--①-|
⑤口口⑤ |②-③-|
口①③口 |④-⑤-|
86
口口口口 |①-②-|
③口口③ |③-④-|
口①①口
②④④②

口⑤⑤口
口⑥⑥口
口⑦⑦口 |--⑤-|
口口口口 |⑥-⑦-|
87
口④④口 |--①-|
③口口③ |②-③-|
②⑤⑤② |--④-|
①口口① |⑤---|
88
①口口① |①---|
③口口⑤ |--②-|
口⑥⑥口 |③-④-|
②口口④ |⑤-⑥-|
89
②①①② |----|
③⑤⑤③ |--①-|
④⑥⑥④ |②-③-|
口口口口 |④-⑤⑥|
90
口口口口 |----|
口口口口 |----|
口口口口 |----|
口口口口 |----|
91
口口口口 |----|
口口口口 |----|
口口口口 |----|
口口口口 |----|
92
口口口口 |①---|
①口口① |----|
①口口① |----|
口口口口 |----|
93
口①①口 |①---|
口②②口 |②---|
口③③口 |③---|
④口口④ |④---|
94
口口口口 |①---|
①①①① |----|
口口口口 |----|
口②②口 |②---|
95
②②②② |①---|
①①①① |----|
口口口口 |②---|
口口口口 |----|

不確定度: 0

最終更新:2016年05月11日 19:01