Russian Caravan Rhapsody
Power Of Nature

BASIC

Level: 4
BPM: 158
Notes: 307

1
口口口口 |----|
口口口口 |----|
口口口口 |----|
口口口口 |----|
2
①②④① |①---|
口口口口 |--②-|
口③③口 |③---|
口口口口 |--④-|
3
口口口口 |①---|
口①①口 |----|
口口口口 |----|
口口口口 |----|
4
口②口口 |①---|
④③③口 |--②-|
口口口口 |③---|
①口口① |--④-|
5
口口口口 |①---|
口口口口 |----|
口①①口 |----|
口口口口 |----|
6
①口口口 |①---|
口②口口 |②---|
③口口口 |③---|
口④口口 |④---|
7
口口口① |①---|
口口②口 |②---|
口口口③ |③---|
口口④口 |④---|
8
口口口口 |①-②-|
口①②口 |--③-|
③①②④ |④---|
口⑤口口 |⑤---|
9
①口口① |①---|
口口口口 |----|
口口口口 |----|
口口口口 |----|
10
口口口口 |①---|
口①①① |----|
口口口口 |②---|
口②②② |----|
11
口口口口 |①---|
口口口口 |②---|
①②③④ |③---|
口口口口 |④---|
12
口口口口 |①---|
口②口口 |②---|
口口口口 |③---|
①口③口 |----|
13
口口口口 |①---|
④③②① |②---|
口口口口 |③---|
口口口口 |④---|
14
口口②口 |①---|
口口口口 |②---|
口口口① |----|
口口口口 |----|
15
口口口口 |①---|
①②③④ |②---|
口口口口 |③---|
口口口口 |④---|
16
口②口口 |①---|
口口口口 |②---|
①口③口 |③---|
口口口口 |----|
17
④口口③ |①-②-|
口口口口 |--③-|
口口口口 |④---|
②口口① |----|
18
口口口口 |①---|
口③③口 |②---|
口②②口 |③---|
口①①口 |----|
19
口②③口 |①---|
口口口口 |②---|
口口口口 |③---|
①口口④ |④---|
20
口口口口 |①---|
④口口① |②---|
口③②口 |③---|
口口口口 |④---|
21
②②①① |①---|
口口口口 |----|
口口口口 |②---|
口口口口 |----|
22
口口口口 |①---|
口①①口 |----|
口①①口 |----|
口口口口 |----|
23
①口口口 |①---|
口口口口 |----|
口口口口 |----|
口口口口 |----|
24
口口口口 |①---|
口①口口 |----|
口口口口 |----|
口口口口 |----|
25
口口口口 |①---|
口口口口 |----|
口口①口 |②---|
②③口口 |③---|
26
口口口口 |①---|
口口口口 |②---|
口③口口 |③---|
口口①② |----|
27
口口口口 |①---|
口口口① |----|
口口口口 |----|
口口口口 |----|
28
口口口口 |①---|
口口口口 |----|
口口①口 |----|
口口口口 |----|
29
口口口口 |①---|
③口口② |----|
口口口口 |②---|
口①口口 |③---|
30
口口口口 |①---|
口口口口 |②---|
②口口① |③---|
口④口③ |④---|
31
口口口口 |①---|
口②①口 |②---|
口④③口 |③---|
口口口口 |④---|
32
②口口① |①---|
④口口③ |②---|
口口口口 |③---|
口口口口 |④---|
33
口②①口 |①---|
口④③口 |②---|
口口口口 |③---|
口口口口 |④---|
34
口口口口 |①---|
口口口口 |②---|
口②①口 |③---|
口口③口 |----|
35
口口口口 |①---|
②口口① |②---|
④口口③ |③---|
口口口口 |④---|
36
口口口口 |①---|
口②①口 |②---|
口④③口 |③---|
口口口口 |④---|
37
②口口① |①---|
④口口③ |②---|
口口口口 |③---|
口口口口 |④---|
38
口口口口 |①---|
口口口口 |②---|
②口口① |③---|
口口口③ |----|
39
口口口口 |①---|
②口口口 |----|
口口口口 |②---|
口①口口 |----|
40
口口①① |①---|
口口②② |②---|
口口③③ |③---|
口口口口 |----|
41
口口口口 |①---|
口口口② |----|
口口口口 |②---|
口口①口 |----|
42
①①口口 |①---|
②②口口 |②---|
③③口口 |③---|
口口口口 |----|
43
口口口口 |①---|
口口口口 |----|
口口②口 |②---|
口口口① |----|
44
①①口口 |①---|
②②口口 |②---|
③③口口 |③---|
口口口口 |----|
45
口口口口 |①---|
口口口口 |----|
口口②口 |②---|
口口①口 |----|
46
口口①① |①---|
口②口口 |----|
口口口口 |②---|
口口口口 |----|
47
口口口口 |①---|
口口口口 |----|
口②②口 |②---|
口①①口 |----|
48
②②②② |①---|
口①①口 |----|
口口口口 |②---|
口口口口 |----|
49
口口口口 |①---|
口口口① |②---|
口②口③ |③---|
口④口口 |④---|
50
口口口口 |①---|
口口③口 |②---|
口口②口 |③---|
口口①口 |----|
51
口口口口 |①---|
①口口口 |②---|
③口②口 |③---|
口口④口 |④---|
52
口口口口 |①---|
口③口口 |②---|
口②口口 |③---|
口①口口 |----|
53
口口口① |①---|
口②口③ |②---|
口④口口 |③---|
口口口口 |④---|
54
口口口口 |①---|
口口③口 |②---|
口口②口 |③---|
口口①口 |----|
55
①口口口 |①---|
③口②口 |②---|
口口④口 |③---|
口口口口 |④---|
56
口口口口 |①---|
口③口口 |②---|
口②口口 |③---|
口①口口 |----|
57
口口口① |①---|
口口③② |②---|
口口④口 |③---|
口口口口 |④---|
58
口口口口 |①---|
口口口口 |②---|
口①口口 |③---|
③②口口 |----|
59
①口口口 |①---|
②③口口 |②---|
口④口口 |③---|
口口口口 |④---|
60
口口口口 |①---|
口口口口 |②---|
口口①口 |③---|
口口②③ |----|
61
口口口口 |①---|
口口口口 |②---|
口③④口 |③---|
口①②口 |④---|
62
口③④口 |①---|
口①②口 |②---|
口口口口 |③---|
口口口口 |④---|
63
口口口口 |①---|
①口口① |----|
口口口口 |②---|
口②②口 |----|
64
③口口③ |①---|
②口口② |②---|
①口口① |③---|
口口口口 |----|
65
口②②口 |①---|
口③③口 |②---|
口④④口 |③---|
①口口① |④---|
66
口口②② |①---|
口口③③ |②---|
口口④④ |③---|
①①口口 |④---|
67
②②口口 |①---|
③③口口 |②---|
④④口口 |③---|
口口①① |④---|
68
口②②口 |①---|
口③③口 |②---|
口④④口 |③---|
①口口① |④---|
69
②②口口 |①---|
③③口口 |②---|
④④口口 |③---|
口口①① |④---|
70
口口②② |①---|
口口③③ |②---|
口口④④ |③---|
①①口口 |④---|
71
①①②② |①---|
口口口口 |----|
口口口口 |②---|
口口口口 |----|
72
口④④口 |①---|
口③③口 |②---|
口②②口 |③---|
口①①口 |④---|
73
①口口① |①---|
口口口口 |----|
口口口口 |②---|
②口口② |----|
74
口口口口 |①---|
④③②① |②---|
④③②① |③---|
口口口口 |④---|
75
①①①① |①---|
口口口口 |----|
口口口口 |----|
口口口口 |----|

不確定度: 0

最終更新:2016年04月18日 00:39