Russian Caravan Rhapsody
Power Of Nature

ADVANCED

Level: 7
BPM: 158
Notes: 485

1
口口口口 |----|
口口口口 |----|
口口口口 |----|
口口口口 |----|
2
①①②② |①---|
口口口口 |----|
口口口口 |②---|
口口口口 |----|
3
口口口口 |①---|
口③③口 |②--③|
②口口② |----|
①口口① |----|
4
①口口② |①---|
①口口② |----|
口口口口 |②---|
口口口口 |----|
5
口口口口 |①---|
口口口口 |----|
口口口口 |----|
口①①口 |----|
6
口口口口 |①---|
口②④口 |②---|
口口口口 |③---|
①①③③ |④---|
7
④口口④ |①---|
②口口② |②--③|
①③③① |----|
口口口口 |④---|
8
⑤①②⑤ |①-②-|
口①②口 |--③-|
③口口④ |④---|
③口口④ |⑤---|
9
③口口③ |①---|
口口口口 |②--③|
口②②口 |----|
口①①口 |----|
10
口口①口 |①-②③|
②③④口 |④-⑤⑥|
口⑦⑥⑤ |⑦-⑧-|
口口口⑧ |----|
11
①②口口 |①-②-|
③④口口 |③-④-|
⑤⑥口口 |⑤-⑥-|
⑦⑧口口 |⑦-⑧-|
12
口④口口 |①-②-|
口口口③ |③--④|
口口口② |----|
口口口① |----|
13
口口②① |①-②-|
口口④③ |③-④-|
口口⑥⑤ |⑤-⑥-|
口口⑧⑦ |⑦-⑧-|
14
口口口口 |①-②-|
①口口⑤ |----|
②口④口 |--③-|
口口口③ |④-⑤-|
15
①②口口 |①-②-|
③④口口 |③-④-|
⑤⑥口口 |⑤-⑥-|
⑦⑧口口 |⑦-⑧-|
16
口④⑤口 |①-②-|
口口口③ |③--④|
口口口② |----|
口口口① |⑤---|
17
口口口口 |①-②-|
①⑤⑤② |--③-|
①③④② |④--⑤|
口③④口 |----|
18
口③③口 |①---|
口口口口 |②--③|
②口口② |----|
①口口① |----|
19
⑦⑧口③ |①-②-|
⑤⑥口口 |③-④-|
口④口口 |⑤-⑥-|
①②口口 |⑦-⑧-|
20
口口口③ |①--②|
④口口口 |--③-|
口口②口 |--④-|
口⑤口① |⑤---|
21
口口口口 |①-②-|
⑦⑤③① |③-④-|
⑧⑥④② |⑤-⑥-|
口口口口 |⑦-⑧-|
22
口口口口 |①-②-|
⑫⑪⑩⑨ |③-④-|
⑧⑦⑥⑤ |⑤⑥⑦⑧|
④③②① |⑨⑩⑪⑫|
23
③②②① |①---|
口口口口 |----|
口口口口 |②---|
口口口口 |③---|
24
口口口口 |①---|
口口口口 |----|
口②②口 |②---|
口口口① |----|
25
口口口口 |①---|
①口口① |----|
口口口口 |----|
口口口口 |----|
26
口口口口 |----|
口口口口 |----|
口口口口 |----|
①口口口 |①---|
27
口②②① |①---|
③口口口 |----|
口口口口 |②---|
口口口口 |③---|
28
口口口口 |①---|
口②②口 |----|
口①口口 |②---|
口口口口 |----|
29
口口口口 |①---|
口口口口 |----|
口口口口 |----|
①口口① |----|
30
口口口口 |----|
口口口口 |----|
口口②口 |①---|
①口口口 |②---|
31
①①口口 |①---|
口②③口 |②-③-|
口④⑤口 |④-⑤-|
⑥口口口 |⑥---|
32
口口①① |①---|
④④口口 |②-③-|
口⑥⑤口 |④---|
口②③口 |⑤-⑥-|
33
②③①① |①---|
口口⑤④ |②-③-|
⑥⑦口口 |④-⑤-|
口口口口 |⑥-⑦-|
34
口口②① |①-②-|
③④口⑤ |③-④-|
口口口口 |⑤---|
⑥⑦口口 |⑥-⑦-|
35
口②③口 |①---|
口④⑤口 |②-③-|
口⑥⑦口 |④-⑤-|
口口①口 |⑥-⑦-|
36
①①口口 |①---|
⑦口口⑥ |②-③-|
⑤口口④ |④-⑤-|
口③②口 |⑥-⑦-|
37
口⑥⑦口 |①---|
口④⑤口 |②-③-|
口②③口 |④-⑤-|
口口①① |⑥-⑦-|
38
③口口③ |①---|
口口⑤口 |②--③|
②④口② |----|
①口口① |④-⑤-|
39
口①口② |①---|
⑤口口口 |--②-|
口口④⑥ |③-④-|
③口口口 |⑤-⑥-|
40
①①③③ |①-②-|
口口⑤⑤ |③-④-|
④④口口 |⑤---|
口口②② |----|
41
口口口口 |①-②-|
口口③口 |③---|
口口口口
①②口口

口口口口
口口口④
口口⑤口 |--④-|
口⑥口口 |⑤-⑥-|
42
①①③③ |①-②-|
口⑥⑤⑤ |③-④-|
④④⑥口 |⑤---|
口口②② |--⑥-|
43
①口口口 |----|
口口口② |----|
③口口口 |①-②-|
口口口④ |③-④-|
44
③③①① |①-②-|
⑤⑤口口 |③-④-|
口口④④ |⑤---|
②②口口 |----|
45
④口口口 |①---|
③口口口 |②---|
②口口口 |③---|
①口口口 |④---|
46
口①①口 |①-②-|
口③口口 |--③-|
口口④口 |④---|
口②②口 |----|
47
口口口口 |①---②-|
③口口⑥ |--③---|
②口口⑤ |④---⑤-|
①口口④ |--⑥---|
48
口③③口 |①---②-|
口②②口 |--③---|
④①①④ |④---|
口口口口 |----|
49
①②口口 |①-②-|
③④口口 |③-④-|
⑤⑥口口 |⑤-⑥-|
⑦⑧口口 |⑦-⑧-|
50
口④口口 |①-②-|
口口口③ |③--④|
口口口② |----|
口口口① |----|
51
口口②① |①-②-|
口口④③ |③-④-|
口口⑥⑤ |⑤-⑥-|
口口⑧⑦ |⑦-⑧-|
52
口口口口 |①-②-|
①口口⑤ |----|
②口④口 |--③-|
口口口③ |④-⑤-|
53
①②口口 |①-②-|
③④口口 |③-④-|
⑤⑥口口 |⑤-⑥-|
⑦⑧口口 |⑦-⑧-|
54
口④⑤口 |①-②-|
口口口③ |③--④|
口口口② |----|
口口口① |⑤---|
55
口口口口 |①-②-|
①⑤⑤② |--③-|
①③④② |④--⑤|
口③④口 |----|
56
口③③口 |①---|
口口口口 |②--③|
②口口② |----|
①口口① |----|
57
①口口⑤ |①-②-|
③口口⑦ |③-④-|
口②⑥口 |⑤-⑥-|
口④⑧口 |⑦-⑧-|
58
④口口④ |①-②-|
口①②口 |③--④|
口③口口 |----|
口口口口 |----|
59
口口口口 |①-②-|
③④⑧⑦ |③-④-|
口口口口 |⑤-⑥-|
①②⑥⑤ |⑦-⑧-|
60
②④④② |①--②|
口⑤口口 |--③-|
口①①口 |--④-|
③口口③ |--⑤-|
61
②③③② |①---|
口④④口 |②---|
口口①口 |③---|
口口口口 |④---|
62
③口口③ |①---|
口口口口 |②---|
口①①口 |③---|
④②②④ |④---|
63
③口口口 |①-②-|
口①②④ |--③-|
⑤①②口 |④-⑤-|
口⑦口⑥ |⑥-⑦-|
64
③口口③ |①---|
口②②口 |②--③|
口①①口 |----|
口口口口 |----|
65
⑦⑧口③ |①-②-|
⑤⑥口口 |③-④-|
口④口口 |⑤-⑥-|
①②口口 |⑦-⑧-|
66
口口口③ |①--②|
④口口口 |--③-|
口口②口 |--④-|
口⑤口① |⑤---|
67
③口⑧⑦ |①-②-|
口口⑥⑤ |③-④-|
口口④口 |⑤-⑥-|
口口②① |⑦-⑧-|
68
③口口口 |①--②|
口口口④ |--③-|
口②口口 |--④-|
①口⑤口 |⑤---|
69
⑦⑧口③ |①-②-|
⑤⑥口口 |③-④-|
口④口口 |⑤-⑥-|
①②口口 |⑦-⑧-|
70
口口③口 |①--②|
④口口② |--③-|
口口口口 |--④-|
口⑤①口 |⑤---|
71
⑤口口⑤ |①-②-|
口③③口 |③-④-|
⑦①①⑦ |⑤-⑥-|
⑧⑥④② |⑦-⑧-|
72
⑦②③⑧ |①-②-|
口⑤⑥口 |③-④-|
口①④口 |⑤-⑥-|
口口口口 |⑦-⑧-|
73
口口口口 |①---|
口口口口 |----|
口②②口 |②---|
口①①口 |----|
74
⑤口口⑥ |①②③④|
①②③④ |-⑤-⑥|
⑧口口⑧ |-⑦--|
口⑦口口 |⑧---|
75
口口口口 |①---|
口①①口 |----|
口①①口 |----|
口口口口 |----|

不確定度: 0

最終更新:2016年04月18日 00:39