Scarlet Moon
REDALiCE feat. Ayumi Nomiya

BASIC

Level: 3
BPM: 180
Notes: 250

1
口口口口 |----|
口口口口 |----|
口口口口 |----|
口口口口 |----|
2
口口口口 |----|
口口口口 |----|
口口口口 |----|
口口口口 |----|
3
口口口口 |----|
口口口口 |----|
口口口口 |----|
口口口口 |----|
4
口口口口 |----|
口口口口 |----|
口口口口 |----|
口口口口 |----|
5
口口口口 |----|
口口口口 |----|
口口口口 |----|
口口口口 |----|
6
口口口口 |①---|
①②口口 |----|
口口口口 |②---|
口口口口 |----|
7
口口口口 |①---|
口口①口 |----|
口口口口 |----|
口口口口 |----|
8
口口口口 |①---|
口口口口 |----|
口口②① |②---|
口口口口 |----|
9
口口口口 |①---|
口口口口 |----|
口①口口 |----|
口口口口 |----|
10
口①口口 |①---|
口②口口 |----|
口口口口 |②---|
口口口口 |----|
11
口口口口 |①---|
口口口口 |----|
口①口口 |----|
口口口口 |----|
12
口口口口 |①---|
口口口口 |----|
口口②口 |②---|
口口①口 |----|
13
口口口口 |①---|
口口①口 |----|
口口口口 |----|
口口口口 |----|
14
口①①口 |①---|
口口口口 |----|
口②②口 |②---|
口口口口 |----|
15
口口口口 |①---|
口①①口 |----|
口口口口 |----|
口口口口 |----|
16
口口口口 |①---|
口①①口 |----|
口口口口 |②---|
口②②口 |----|
17
口口口口 |①---|
口口口口 |----|
口①①口 |----|
口口口口 |----|
18
①①口口 |①---|
口口口口 |----|
口口口口 |----|
口口口口 |----|
19
口口①① |①---|
口口口口 |----|
口口口口 |----|
口口口口 |----|
20
口口口口 |①---|
口①①口 |----|
口口口口 |②---|
口②②口 |----|
21
口口口口 |①---|
口口口口 |----|
口①①口 |----|
口口口口 |----|
22
口口口口 |①---|
口口口口 |----|
①口口① |②---|
口②③口 |③---|
23
口口口口 |①---|
①口口① |----|
口②③口 |②---|
口口口口 |③---|
24
①口口① |①---|
口②③口 |----|
口口口口 |②---|
口口口口 |③---|
25
口口口口 |①---|
口口口口 |----|
①口口① |----|
口口口口 |----|
26
口①②口 |①---|
口③④口 |②---|
口口口口 |③---|
口口口口 |④---|
27
口口口口 |①---|
口口口口 |②---|
口①②口 |③---|
口③④口 |④---|
28
口口口口 |①---|
②口口② |----|
①口口① |②---|
口口口口 |----|
29
①口口① |①---|
口口口口 |----|
口口口口 |----|
口口口口 |----|
30
②②②② |①---|
①口口① |----|
③口口口 |②---|
口口口口 |③---|
31
口口口口 |①---|
口②口口 |----|
口③①口 |②---|
口口口口 |③---|
32
口口口口 |①---|
口口口口 |----|
口口口② |----|
口①口口 |②---|
33
口口口口 |①---|
口口②口 |----|
口①③口 |②---|
口口口口 |③---|
34
口口口口 |①---|
②口口口 |----|
口口口口 |----|
口口①口 |②---|
35
口②口口 |①---|
口③①口 |----|
口口口口 |②---|
口口口口 |③---|
36
口②②口 |①---|
口口口口 |----|
口①口口 |----|
口口口口 |②---|
37
口口口口 |①---|
②口口② |----|
①口口① |②---|
口口口口 |----|
38
口口口口 |①---|
口①①口 |----|
②①①口 |----|
口口口口 |②---|
39
口口口口 |①---|
口②口口 |----|
口③①口 |②---|
口口口口 |③---|
40
口口口口 |①---|
口口口口 |----|
口口口② |----|
口①口口 |②---|
41
口口口口 |①---|
口口②口 |----|
口①③口 |②---|
口口口口 |③---|
42
口口口口 |①---|
②口口口 |----|
口口口口 |----|
口口①口 |②---|
43
口②口口 |①---|
口③①口 |----|
口口口口 |②---|
口口口口 |③---|
44
口②②口 |①---|
口口口口 |----|
口①口口 |----|
口口口口 |②---|
45
口口口口 |①---|
①口口① |----|
②口口② |②---|
口口口口 |----|
46
口口口口 |①---|
口①①口 |----|
口①①口 |----|
口口口口 |----|
47
口口口口 |----|
口口口口 |----|
口口口口 |----|
口口口口 |----|
48
口口口口 |----|
口口口口 |----|
口口口口 |----|
口口口口 |----|
49
口口口口 |----|
口口口口 |----|
口口口口 |----|
口口口口 |----|
50
口口口口 |----|
口口口口 |----|
口①①口 |----|
口口口口 |①---|
51
①①①① |①---|
②②口口 |----|
③③口口 |②---|
口口口口 |③---|
52
口口口口 |①---|
口口口口 |----|
口②②口 |----|
①①口口 |②---|
53
①口口① |①---|
口口②② |----|
口口③③ |②---|
口口口口 |③---|
54
口口口口 |①---|
口口口口 |----|
口②②口 |----|
口口①① |②---|
55
①口口① |①---|
②②口口 |----|
③③口口 |②---|
口口口口 |③---|
56
口口口口 |①---|
口口口口 |----|
口②②口 |----|
①①口口 |②---|
57
①②③④ |①---|
口口口口 |②---|
口口口口 |③---|
口口口口 |④---|
58
口口口口 |①---|
口①①口 |----|
②①①② |----|
口口口口 |②---|
59
①口口① |①---|
②②口口 |----|
③③口口 |②---|
口口口口 |③---|
60
口口口口 |①---|
口口口口 |----|
口②②口 |----|
①①口口 |②---|
61
①口口① |①---|
口口②② |----|
口口③③ |②---|
口口口口 |③---|
62
口口口口 |①---|
口口口口 |----|
口②②口 |----|
口口①① |②---|
63
①口口① |①---|
②②口口 |----|
③③口口 |②---|
口口口口 |③---|
64
口口口口 |①---|
口口口口 |----|
口②②口 |----|
①①口口 |②---|
65
①②③④ |①---|
口口口口 |②---|
口口口口 |③---|
口口口口 |④---|
66
口口口口 |①---|
口①①口 |----|
口①①口 |----|
口口口口 |----|
67
口口口口 |①---|
①②口口 |----|
口口口口 |②---|
口口口口 |----|
68
口口口口 |①---|
口口①口 |----|
口口口口 |----|
口口口口 |----|
69
口口口口 |①---|
口口口口 |②---|
③④②① |③---|
口口口口 |④---|
70
口口口口 |①---|
口①①口 |----|
口口口口 |----|
口口口口 |----|
71
③④②① |①---|
口口口口 |②---|
口口口口 |③---|
口口口口 |④---|
72
口口口口 |①---|
口①①口 |----|
口口口口 |----|
口口口口 |----|
73
口口口口 |①---|
口口口口 |②---|
口口口口 |③---|
③④②① |④---|
74
口口②口 |①---|
口口口口 |----|
口①①口 |----|
口口口口 |②---|
75
口口口口 |①---|
①②④③ |②---|
口口口口 |③---|
口口口口 |④---|
76
口口口口 |①---|
口②口口 |----|
口①①口 |----|
口口口口 |②---|
77
口口口口 |①---|
口口口口 |②---|
③④②① |③---|
口口口口 |④---|
78
口②口口 |①---|
口①①口 |----|
口口口口 |----|
口口口口 |②---|
79
③④②① |①---|
口口口口 |②---|
口口口口 |③---|
口口口口 |④---|
80
口口口口 |①---|
口①①口 |----|
口口口口 |----|
口②②口 |②---|
81
口口口口 |①---|
②口口② |----|
①口口① |②---|
口口口口 |----|
82
①口口① |①---|
口口口口 |----|
口口口口 |----|
口口口口 |----|

不確定度: 0

最終更新:2016年04月18日 00:35