Scarlet Moon
REDALiCE feat. Ayumi Nomiya

ADVANCED

Level: 7
BPM: 180
Notes: 465

1
口口口口 |----|
口口口口 |----|
口口口口 |----|
口口口口 |----|
2
口口①口 |①---|
口口口口 |----|
口口口口 |----|
口口口口 |----|
3
口口口口 |①---|
口口口口 |----|
口口①口 |----|
口口口口 |----|
4
口口口口 |①---|
口①口口 |----|
口口口口 |----|
口口口口 |----|
5
口口口口 |①---|
②口口口 |----|
口③口口 |----|
口①口口 |②-③-|
6
口②口口 |①---|
口①③① |--②-|
口④口口 |③--④|
⑤口⑤口 |--⑤-|
7
口口口口 |----|
口②口口 |----|
①口口口 |----|
口口口口 |①-②-|
8
⑤口⑤口 |①---|
口④口口 |--②-|
口①③① |③--④|
口②口口 |--⑤-|
9
口口口口 |----|
①口口口 |----|
口②口口 |----|
口口口口 |①-②-|
10
口②口口 |①---|
口①③① |--②-|
口④口口 |③--④|
⑤口⑤口 |--⑤-|
11
口口口口 |----|
①口口口 |----|
口②口口 |----|
口口口口 |①-②-|
12
口③②口 |①-②-|
口①口① |③-④-|
④口④口
口口口口

口口口口
⑦⑦⑦⑦
口口口口 |--⑤-|
口⑥⑤口 |⑥-⑦-|
13
口口口口 |----|
口口口口 |----|
①②③口 |--①-|
口口口口 |②-③-|
14
口口口口 |①---|
口②④口 |--②-|
口口口① |③---|
口③口口 |--④-|
15
口口口口 |①---|
②③④口 |----|
口口口口 |--②-|
口口①口 |③-④-|
16
②口口④ |①---|
口口口① |--②-|
③口口口 |③---|
口口口口 |--④-|
17
②口口口 |①---|
③口口口 |----|
④口口① |--②-|
口口口口 |③-④-|
18
口口口② |①---|
口口口③ |----|
口口口④ |--②-|
①口口口 |③-④-|
19
口口口口 |①---|
口口口口 |----|
②③④口 |--②-|
口口口① |③-④-|
20
口口口口 |①---|
口②④口 |--②-|
口口口① |③---|
口③口口 |--④-|
21
②③口口 |①---|
口口口口 |----|
口口口口 |----|
口口①口 |②-③-|
22
口口口口 |①-②-|
口口②① |③-④-|
③④口口 |⑤--⑥|
⑥口⑦⑤ |--⑦-|
23
①②口口 |①-②-|
口口④③ |③-④-|
⑤⑦口⑥ |⑤--⑥|
口口口口 |--⑦-|
24
①口②口 |①--②|
口③口口 |--③-|
口⑤口④ |④--⑤|
口口⑥口 |--⑥-|
25
②口口口 |①---|
③口口口 |----|
口口口口 |----|
①口口① |②-③-|
26
口口③⑥ |①-②-|
口口④口 |③-④-|
口②口⑦ |⑤--⑥|
口①口⑤ |--⑦-|
27
①口⑤口 |①-②-|
②口⑦口 |③-④-|
口④口口 |⑤--⑥|
口③⑥口 |--⑦-|
28
①④④① |①--②|
口口口口 |--③-|
②⑤⑤② |④--⑤|
③⑥⑥③ |--⑥-|
29
口口口口 |①---|
①①①① |----|
口口口口 |----|
口口口口 |----|
30
④⑤口④ |①--②|
①口⑥② |--③-|
口③③口 |④---|
②口口① |⑤-⑥-|
31
口口口口 |①---|
①口口① |--②-|
口口口口
口口②口

口口⑤口
⑤③口口
口口口③ |③--④|
口④口口 |--⑤-|
32
口①口口 |----|
口口②口 |----|
口口口口 |----|
口口口口 |①-②-|
33
口口口口 |①---|
①口口① |--②-|
口口口口
口口②口

口口⑤口
⑤③口口
口口口③ |③--④|
口④口口 |--⑤-|
34
口①口口 |----|
口口②口 |----|
口口口口 |----|
口口口口 |①-②-|
35
口口口口 |①---|
①口口① |--②-|
口口口口
口口②口

口口⑤口
⑤③口口
口口口③ |③--④|
口④口口 |--⑤-|
36
口①口② |----|
口口口口 |----|
口口口口 |----|
口口口口 |①-②-|
37
⑥⑥⑥⑥ |①-②-|
⑤⑤口口 |③-④-|
①③②口 |--⑤-|
口口④④ |--⑥-|
38
口③口口 |--①-|
口口④口 |②---|
②口①口 |----|
口①口② |③-④-|
39
口口口口 |①---|
①口口① |--②-|
口口口口
口口②口

口口⑤口
⑤③口口
口口口③ |③--④|
口④口口 |--⑤-|
40
口①口口 |----|
口口②口 |----|
口口口口 |----|
口口口口 |①-②-|
41
口口口口 |①---|
①口口① |--②-|
口口口口
口口②口

口口⑤口
⑤③口口
口口口③ |③--④|
口④口口 |--⑤-|
42
口①口口 |----|
口口②口 |----|
口口口口 |----|
口口口口 |①-②-|
43
口口口② |①---|
①口口① |②-③-|
口口口口
口口③口

口口⑥口
⑥④口口
口口口④ |④--⑤|
口⑤口口 |--⑥-|
44
口③口② |①---|
口口④① |②---|
口口口口 |----|
口口口口 |③-④-|
45
④口口口 |①-②-|
口①口口 |③-④-|
口③②口
口口口④

口口口⑤
口⑥⑥口
口口口口 |--⑤-|
⑤⑥⑥口 |--⑥-|
46
口口口口 |--①-|
②口口② |②---|
①口口① |----|
口口口口 |----|
47
①口②口 |①---|
口口口口 |----|
口口口口 |②---|
口口口口 |----|
48
口口口口 |①---|
口①口② |----|
口口口口 |②---|
口口口口 |----|
49
口口口口 |①---|
口口口口 |②---|
①②③④ |③---|
口口口口 |④---|
50
口口口口 |①---|
口口口口 |②---|
口口口口 |③---|
④③②① |④---|
51
②口口② |①-②-|
①③③① |--③-|
口口口口
口口口口

口口口口
⑥口口⑥
⑤④④⑤ |④---|
口口口口 |⑤-⑥-|
52
口①口口 |----|
口口②口 |----|
口口口口 |----|
口口口口 |①-②-|
53
口口口口 |①---|
①口口① |--②-|
口口口口
口口②口

口口⑤口
⑤③口口
口口④③ |③--④|
④口口口 |--⑤-|
54
口①口口 |----|
口口②口 |----|
口口口口 |----|
口口口口 |①-②-|
55
口口口口 |①---|
①口口① |--②-|
口口口口
口口②口

口口⑤口
⑤③口口
口口④③ |③--④|
④口口口 |--⑤-|
56
口①口② |----|
口口口口 |----|
口口口口 |----|
口口口口 |①-②-|
57
⑥⑥⑥⑥ |①-②-|
⑤⑤口口 |③-④-|
①③②口 |--⑤-|
口口④④ |--⑥-|
58
口③口口 |--①-|
口口④口 |②---|
②口①口 |----|
口①口② |③-④-|
59
口口口② |①---|
①口口① |②-③-|
口口口口
口口③口

口口⑥口
⑥口口口
口④⑤④ |④--⑤|
⑤口口口 |--⑥-|
60
口②口① |----|
口口③口 |①---|
口口口口 |----|
口口口口 |②-③-|
61
口口口② |①---|
①口口① |②-③-|
口口口口
口口③口

口口⑥口
⑥口口口
口④⑤④ |④--⑤|
⑤口口口 |--⑥-|
62
口②口① |----|
口口③口 |①---|
口口口口 |----|
口口口口 |②-③-|
63
口口口② |①---|
①口口① |②-③-|
口口口口
口口③口

口口⑥口
⑥口口口
口④⑤④ |④--⑤|
⑤口口口 |--⑥-|
64
口③口② |①---|
口口④① |②---|
口口口口 |----|
口口口口 |③-④-|
65
④口口口 |①-②-|
口①口口 |③-④-|
口③②口
口口口④

口口口⑤
口⑥⑥口
口口口口 |--⑤-|
⑤⑥⑥口 |--⑥-|
66
③口口口 |--①-|
②④口② |②---|
①口口① |----|
口口口口 |③-④-|
67
口②口口 |①---|
口口③口 |--②-|
口④①口 |③--④|
口口⑤口 |--⑤-|
68
口口口口 |----|
口②口口 |----|
①口口口 |----|
口口口口 |①-②-|
69
⑤口⑤口 |①---|
口④口口 |--②-|
口①③① |③--④|
口②口口 |--⑤-|
70
口口口口 |--①-|
④口口口 |--②-|
①⑤③口 |--③-|
②口口口 |④-⑤-|
71
口②口口 |①---|
口①③① |--②-|
口④口口 |③--④|
⑤口⑤口 |--⑤-|
72
①口口口 |--①-|
②口口口 |--②-|
口⑤口③ |--③-|
④口口口 |④-⑤-|
73
口③②口 |①-②-|
口①口① |③-④-|
④口④口
口口口口

口口口口
⑦⑦⑦⑦
口口口口 |--⑤-|
口⑥⑤口 |⑥-⑦-|
74
口口口口 |----|
①口口口 |----|
口②口口 |----|
口口口口 |①-②-|
75
口③⑥② |①---|
口①④① |②-③-|
口⑤口口 |④--⑤|
⑦口⑦口 |⑥-⑦-|
76
①口⑤② |--①-|
③⑥口口 |②-③-|
⑤口④口 |--④-|
口口口口 |⑤-⑥-|
77
口口⑥② |①---|
⑦⑤⑦口 |②-③-|
口①④① |④--⑤|
口③口口 |⑥-⑦-|
78
口口⑤② |--①-|
⑤口口口 |②-③-|
①⑥口④ |--④-|
③口口口 |⑤-⑥-|
79
口③口② |①-②-|
口①④① |--③-|
口⑤口口 |④--⑤|
⑥口⑥口 |--⑥-|
80
②口口② |①-②-|
③口口① |--③-|
口⑤口口 |----|
④口口口 |④-⑤-|
81
口③②口 |①-②-|
口①口① |③-④-|
④口④口
口口口口

口口口口
⑦⑦⑦⑦
口口口口 |--⑤-|
⑥⑥⑤⑤ |⑥-⑦-|

不確定度: 0

最終更新:2016年04月18日 00:35