Struggle
Masayoshi Minoshima(ALR)

BASIC

Level: 5
BPM: 180
Notes: 544

1
口口口口 |----|
口口口口 |----|
口口口口 |----|
口口口口 |----|
2
口口口口 |----|
口口口口 |----|
口口口口 |----|
口口口口 |----|
3
口口口口 |①---|
口①①口 |----|
口①①口 |----|
口口口口 |----|
4
口口口口 |①---|
④③③④ |②---|
②口口② |③---|
口①①口 |④---|
5
口口口口 |①---|
④③③④ |②---|
②口口② |③---|
口①①口 |④---|
6
口口口口 |①---|
④③③④ |②---|
②①口② |③---|
口口①口 |④---|
7
口口口口 |①---|
④③③④ |②---|
②①口② |③---|
口口①口 |④---|
8
③②②③ |①---|
口④口口 |②---|
口①④口 |③---|
口口①口 |④---|
9
③口④③ |①---|
①④口① |②---|
口②口口 |③---|
口口②口 |④---|
10
口口口口 |①---|
③口口④ |②---|
口③④口 |③---|
①①②② |④---|
11
①口口① |①---|
口口口口 |②---|
②③④② |③---|
口③④口 |④---|
12
①②口口 |①---|
①②口口 |②---|
⑥⑤④③ |③-④-|
口口口口 |⑤-⑥-|
13
口口口口 |----|
口口口口 |----|
口口口口 |①---|
①①②② |②---|
14
①②口口 |①---|
①②口口 |②---|
⑥⑤④③ |③-④-|
口口口口 |⑤-⑥-|
15
口口口口 |----|
口口口口 |----|
口口口口 |①---|
②②①① |②---|
16
①①口口 |①---|
口口②口 |②---|
口口口③ |③---|
口口口④ |④---|
17
口口④④ |①---|
口口③口 |②---|
口②口口 |③---|
①①口口 |④---|
18
口口口口 |①---|
①口口① |②---|
②③④② |③---|
口④③口 |④---|
19
口③④口 |①---|
口④③口 |②---|
②口口② |③---|
①口口① |④---|
20
口口口口 |①---|
口口口口 |②---|
口口口口 |③---|
①②③④ |④---|
21
口口口口 |①---|
口口口口 |②---|
口口口口 |③---|
①②③④ |④---|
22
口口口口 |①---|
口口口口 |②---|
口口口口 |③---|
①②③④ |④---|
23
口口口口 |①---|
口口口口 |②---|
口口口口 |③---|
①②③④ |④---|
24
口口口口 |①---|
口口口口 |②---|
口②③口 |③---|
①口口④ |④---|
25
口口口口 |①---|
口口口口 |②---|
口②③口 |③---|
①口口④ |④---|
26
口口口口 |①---|
口口口口 |②---|
口②③口 |③---|
①口口④ |④---|
27
口口口口 |①---|
口口口口 |②---|
口②③口 |③---|
①口口④ |④---|
28
口口口口 |①---|
口④④① |②---|
②③③② |③---|
①口口口 |④---|
29
口口口口 |①---|
口④④① |②---|
②③③② |③---|
①口口口 |④---|
30
口口口口 |①---|
口④④① |②---|
②③③② |③---|
①口口口 |④---|
31
口口口口 |①---|
口④④① |②---|
②③③② |③---|
①口口口 |④---|
32
口④④口 |①---|
③口口③ |②---|
②口口② |③---|
口①①口 |④---|
33
口④④口 |①---|
③口口③ |②---|
②口口② |③---|
口①①口 |④---|
34
④口口④ |①---|
口口口口 |②---|
③②②③ |③---|
口①①口 |④---|
35
口①②口 |①-②-|
⑤③④⑥ |③-④-|
口⑦⑧口 |⑤-⑥-|
口口口口 |⑦-⑧-|
36
口口口口 |①---|
口口口口 |--②-|
口口口②
口①口口

口口口口
口口口③
口口口口 |③---|
口④口口 |--④-|
37
口口口口 |①---|
口③口口 |②---|
口口②口 |③---|
口口①口 |----|
38
口口口口 |①---|
口口口③ |--②-|
口④口② |③---|
口①口口 |--④-|
39
口口口口 |①---|
口口口③ |②---|
口口口口 |③---|
口①②口 |----|
40
口口口口 |①---|
口④口③ |--②-|
口口口② |③---|
口①口口 |--④-|
41
口口口口 |①---|
口口口③ |②---|
口口口口 |③---|
口①口② |----|
42
口口口口 |①---|
口口口③ |--②-|
口④口② |③---|
口①口口 |--④-|
43
口④④口 |①---|
③口口③ |②---|
②口口② |③---|
口①①口 |④---|
44
口④口口 |①---|
口③口口 |②---|
口②口口 |③---|
口①口口 |④---|
45
口④口口 |①---|
口③口口 |②---|
口②口口 |③---|
口①①口 |④---|
46
口④口口 |①---|
口③口口 |②---|
口②①口 |③---|
口①口口 |④---|
47
口④口口 |①---|
口③口口 |②---|
口②口口 |③---|
口①①口 |④---|
48
口⑦⑧口 |①-②-|
口⑤⑥口 |③-④-|
口③④口 |⑤-⑥-|
口①②口 |⑦-⑧-|
49
口⑦⑧口 |①-②-|
口⑤⑥口 |③-④-|
口③④口 |⑤-⑥-|
口①②口 |⑦-⑧-|
50
①口口② |①-②-|
③口口④ |③-④-|
口⑤⑥口 |⑤-⑥-|
口⑦⑧口 |⑦-⑧-|
51
口①④口 |①-②-|
口③②口 |③-④-|
口⑤⑥口 |⑤-⑥-|
口⑦⑧口 |⑦-⑧-|
52
①③③① |①---|
口口口口 |②---|
②④⑤② |③---|
口口口口 |④-⑤-|
53
口口口口 |--①-|
①口口① |②-③-|
②口口② |----|
③口口③ |----|
54
口①②口 |①-②-|
口⑤⑥口 |③-④-|
⑦③④⑧ |⑤-⑥-|
口口口口 |⑦-⑧-|
55
口⑦⑧口 |①-②-|
③口口④ |③-④-|
口⑤⑥口 |⑤-⑥-|
口①②口 |⑦-⑧-|
56
口口口口 |①---|
口③③口 |②---|
②口口② |③---|
①④⑤① |④-⑤-|
57
口口口口 |--①-|
①口口① |②-③-|
②口口② |----|
③口口③ |----|
58
口口口口 |①---|
口②③口 |--②-|
口口④口 |③---|
口①①口 |--④-|
59
口口口口 |①---|
③③④④ |②---|
口口口口 |③---|
②①①② |④---|
60
口①②口 |①-②-|
口⑤⑥口 |③-④-|
口③④口 |⑤-⑥-|
口⑦⑧口 |⑦-⑧-|
61
①口口② |①-②-|
口⑤⑥口 |③-④-|
③⑦⑧④ |⑤-⑥-|
口口口口 |⑦-⑧-|
62
口①②口 |①-②-|
③口口④ |③-④-|
⑤口口⑥ |⑤-⑥-|
口⑦⑧口 |⑦-⑧-|
63
口①②口 |①-②-|
口③④口 |③-④-|
⑤口口⑥ |⑤-⑥-|
口⑦⑧口 |⑦-⑧-|
64
口口口口 |①---|
口②③口 |--②-|
口口口口 |③---|
①口④口 |--④-|
65
口口口口 |①---|
③口口③ |②---|
①①②② |③---|
口口口口 |----|
66
口口口口 |①---|
口口口口 |②---|
②④④② |③---|
①③③① |④---|
67
口口口口 |①---|
②④④② |②---|
口口口口 |③---|
①③③① |④---|
68
口③③口 |①---|
④口口④ |②---|
②①①② |③---|
口口口口 |④---|
69
口口口口 |①---|
④③③④ |②---|
②口口② |③---|
口①①口 |④---|
70
口口口口 |①---|
④③③④ |②---|
②①口② |③---|
口口①口 |④---|
71
口口口口 |①---|
④③③④ |②---|
②①口② |③---|
口口①口 |④---|
72
③②②③ |①---|
口④口口 |②---|
口①④口 |③---|
口口①口 |④---|
73
③口④③ |①---|
①④口① |②---|
口②口口 |③---|
口口②口 |④---|
74
口口口口 |①---|
③口口④ |②---|
口③④口 |③---|
①①②② |④---|
75
①口口① |①---|
口口口口 |②---|
②③④② |③---|
口③④口 |④---|
76
④口口④ |①---|
③口口③ |②---|
②口口② |③---|
①口口① |④---|
77
口④④口 |①---|
口③③口 |②---|
口②②口 |③---|
口①①口 |④---|
78
④口④口 |①---|
③口口③ |②---|
②口②口 |③---|
①口口① |④---|
79
④口④口 |①---|
③口口③ |②---|
②口②口 |③---|
①口口① |④---|
80
口口口口 |①-②-|
口⑦⑧口 |③-④-|
⑤③④⑥ |⑤-⑥-|
口①②口 |⑦-⑧-|
81
口③④口 |①-②-|
①口口② |③-④-|
口⑤⑥口 |⑤-⑥-|
口⑦⑧口 |⑦-⑧-|
82
①②③④ |①-②-|
口口口口 |③-④-|
⑤⑥⑦⑧ |⑤-⑥-|
口口口口 |⑦-⑧-|
83
口⑦⑧口 |①-②-|
口①②口 |③-④-|
口⑤⑥口 |⑤-⑥-|
口③④口 |⑦-⑧-|
84
口口口口 |①---|
口①①口 |----|
口口口口 |----|
口口口口 |----|

不確定度: 0

最終更新:2016年04月18日 00:38