Struggle
Masayoshi Minoshima(ALR)

ADVANCED

Level: 7
BPM: 180
Notes: 637

1
口口口口 |----|
口口口口 |----|
口口口口 |----|
口口口口 |----|
2
口口口口 |----|
口口口口 |----|
口口口口 |----|
口口口口 |----|
3
口口口口 |①---|
口①①口 |----|
口①①口 |--②-|
口②③口 |③---|
4
口口③① |①-②-|
口口④② |③-④-|
口口口口
口口口口

口口口⑧
口口口口
⑤⑦口口 |⑤-⑥-|
口口⑥口 |⑦-⑧-|
5
口口①口 |--①-|
②③④口 |--②③|
口口⑥⑦ |④-⑤-|
口⑤口口 |⑥-⑦-|
6
口口③① |①-②-|
口口④② |③-④-|
口口口口
口口口口

口口口⑧
口口口口
⑤⑦口口 |⑤-⑥-|
口口⑥口 |⑦-⑧-|
7
口口①口 |--①-|
②③④口 |--②③|
口口⑥⑦ |④-⑤-|
口⑤口口 |⑥-⑦-|
8
口口③① |①-②-|
口口④② |③-④-|
口口口口
口口口口

口口口⑧
口口口口
⑤⑦口口 |⑤-⑥-|
口口⑥口 |⑦-⑧-|
9
②③④口 |--①-|
口口⑥⑦ |--②③|
口⑤①口 |④-⑤-|
口口口口 |⑥-⑦-|
10
⑤口口口 |①---|
口口口口 |②---|
②③④② |③-④-|
①口口① |--⑤-|
11
口口口① |--①-|
口②②口 |--②-|
口口口口 |--③-|
口③④口 |④---|
12
①③③① |①-②-|
②④④② |③-④-|
口口口口
口口口口

⑧口口⑧
口口口口
⑤⑦⑦⑤ |⑤-⑥-|
口⑥⑥口 |⑦-⑧-|
13
口口①口 |--①-|
②③④⑦ |--②③|
口口⑥口 |④-⑤-|
口⑤口口 |⑥-⑦-|
14
①③③① |①-②-|
口④④口 |③-④-|
口口口口
②口口②

⑧口口⑧
口口口口
⑤⑦⑦⑤ |⑤-⑥-|
口⑥⑥口 |⑦-⑧-|
15
口口①口 |--①-|
②③④⑦ |--②③|
口口⑥口 |④-⑤-|
口⑤口口 |⑥-⑦-|
16
①①②② |①-②-|
⑧⑤⑤⑧ |③-④-|
③⑦⑦④ |⑤-⑥-|
③⑥⑥④ |⑦-⑧-|
17
②③④① |--①-|
口口⑥⑦ |--②③|
口⑤口口 |④-⑤-|
口口口口 |⑥-⑦-|
18
口⑤口口 |①---|
口口⑤口 |②---|
②③④② |③-④-|
①口口① |--⑤-|
19
口口①口 |--①-|
②①口② |--②-|
口③④口 |--③-|
口口口口 |④---|
20
口口口口 |①---|
口口①口 |②---|
口口口口 |③---|
①②③④ |④---|
21
口口口口 |①---|
口口口口 |②---|
口口口口 |③---|
①②③④ |④---|
22
口口口口 |①---|
口口口口 |②---|
口口口口 |③---|
①②③④ |④---|
23
口口口口 |①---|
口口口口 |②---|
口口口口 |③---|
①②③④ |④---|
24
口口口口 |①---|
口口口口 |②---|
①②③口 |③---|
①口口④ |④---|
25
口口口口 |①---|
口口口口 |②---|
口②③口 |③---|
①口口④ |④---|
26
口口口口 |①---|
口口口口 |②---|
口②③口 |③---|
①口口④ |④---|
27
口口口口 |①---|
口口③口 |②---|
口②③④ |③---|
①口口④ |④---|
28
④口口口 |①---|
③口口口 |②---|
②口③口 |③---|
①口①口 |④---|
29
④口口口 |①---|
③口口口 |②---|
②口③口 |③---|
①口①口 |④---|
30
④口口口 |①---|
③口口口 |②---|
②口③口 |③---|
①口①口 |④---|
31
④口口口 |①---|
③口④口 |②---|
②口③口 |③---|
①口①口 |④---|
32
④口④口 |①---|
口③口③ |②---|
口②口② |③---|
①口①口 |④---|
33
④口④口 |①---|
口③口③ |②---|
口②口② |③---|
①口①口 |④---|
34
④口口④ |①---|
口③③口 |②---|
口②②口 |③---|
①口口① |④---|
35
口口口口 |①---|
口④⑤口 |②---|
口②②口 |③---|
①③③① |④-⑤-|
36
口②③口 |①---|
口口口口 |--②-|
口口④口 |③---|
①口口① |--④-|
37
口③③口 |①---|
口口④口 |②---|
②口口② |③-④-|
口①①口 |----|
38
口②③口 |①---|
口口口口 |--②-|
口口④口 |③---|
①口口① |--④-|
39
口③③口 |①---|
口口④口 |②---|
②⑤口② |③-④-|
口①①口 |--⑤-|
40
口②③口 |①---|
口口口口 |--②-|
口口④口 |③---|
口①①口 |--④-|
41
口③③口 |①---|
口口④口 |②---|
②口口② |③-④-|
口①①口 |----|
42
口②③口 |①---|
口口口口 |--②-|
口口④口 |③---|
①口口① |--④-|
43
口口⑤① |①-②-|
⑦③⑥② |③-④-|
⑧④口口 |⑤-⑥-|
口口口口 |⑦-⑧-|
44
口④口口 |①---|
口③③口 |②---|
口②口口 |③---|
口①①口 |④---|
45
口④口口 |①---|
口③③口 |②---|
口②口口 |③---|
口①①口 |④---|
46
④口口口 |①---|
口③③口 |②---|
②口口口 |③---|
口①①口 |④---|
47
④口口口 |①---|
口③③口 |②---|
②口口口 |③---|
口①①口 |④---|
48
⑦口口⑧ |①-②-|
口⑤⑥口 |③-④-|
③口口④ |⑤-⑥-|
口①②口 |⑦-⑧-|
49
口口口口 |①-②-|
⑦⑤⑥⑧ |③-④-|
③口口④ |⑤-⑥-|
口①②口 |⑦-⑧-|
50
口①①口 |①-②-|
⑧⑥⑤⑦ |③-④-|
口②③口 |⑤-⑥-|
口④口口 |⑦-⑧-|
51
口口①口 |①-②-|
口⑥口口 |③-④-|
⑧②⑤⑦ |⑤-⑥-|
口④③口 |⑦-⑧-|
52
口①①口 |①---|
①口口① |②---|
口口口口
②口口②

③口口③
⑤③③⑤
口口口口 |③---|
口④④口 |④-⑤-|
53
口③③口 |--①-|
口③③口 |②-③-|
②⑥⑤① |--④-|
②④口① |⑤-⑥-|
54
口④⑦口 |①-②-|
口⑧口③ |③-④-|
⑥口口口 |⑤-⑥-|
②口⑤① |⑦-⑧-|
55
④口口③ |①-②-|
口口⑤口 |③-④-|
⑥⑧口① |⑤-⑥-|
口②⑦口 |⑦-⑧-|
56
口①①口 |①---|
①口口① |②---|
口口口口
②口口②

③口口③
⑤③③⑤
口口口口 |③---|
口④④口 |④-⑤-|
57
口③③口 |--①-|
口③③口 |②-③-|
②④⑤① |--④-|
②⑥口① |⑤-⑥-|
58
口②③口 |①---|
口口口口 |--②-|
口口④① |③---|
口口口① |--④-|
59
口口口口 |①---|
口②②口 |②---|
③③④④ |③---|
口①①口 |④---|
60
口口①① |①-②-|
②口口⑤ |③-④-|
⑥⑧口口 |⑤-⑥-|
口④⑦③ |⑦-⑧-|
61
口口①① |①-②-|
④口口⑤ |③-④-|
口⑧③⑦ |⑤-⑥-|
②⑥口口 |⑦-⑧-|
62
口口①① |①-②-|
⑧④口口 |③-④-|
②口⑤⑦ |⑤-⑥-|
⑥口③口 |⑦-⑧-|
63
④⑧①① |①-②-|
口口③口 |③-④-|
口⑥⑤⑦ |⑤-⑥-|
口②口口 |⑦-⑧-|
64
口口口口 |①---|
口③③口 |--②-|
口口②④ |③---|
①口口① |--④-|
65
口③③口 |①---|
口口④口 |②---|
口⑤口口 |③-④-|
①②②① |--⑤-|
66
口口口口 |①---|
口口口口 |②---|
②④口口 |③---|
①③③① |④---|
67
口口口口 |①---|
口③③口 |②---|
②④④② |③---|
①口口① |④---|
68
口口③① |①-②-|
口口④② |③-④-|
口口口口
口口口口

口口口⑧
口口口口
⑤⑦口口 |⑤-⑥-|
口口⑥口 |⑦-⑧-|
69
口口①口 |--①-|
②③④口 |--②③|
口口⑥⑦ |④-⑤-|
口⑤口口 |⑥-⑦-|
70
口口③① |①-②-|
口口④② |③-④-|
口口口口
口口口口

口口口⑧
口口口口
⑤⑦口口 |⑤-⑥-|
口口⑥口 |⑦-⑧-|
71
口口①口 |--①-|
②③④口 |--②③|
口口⑥⑦ |④-⑤-|
口⑤口口 |⑥-⑦-|
72
口口③① |①-②-|
口口④② |③-④-|
口口口口
口口口口

口口口⑧
口口口口
⑤⑦口口 |⑤-⑥-|
口口⑥口 |⑦-⑧-|
73
②③④口 |--①-|
口口⑥⑦ |--②③|
口⑤①口 |④-⑤-|
口口口口 |⑥-⑦-|
74
口⑤口口 |①---|
口口口口 |②---|
②③④② |③-④-|
①口口① |--⑤-|
75
口口①口 |--①-|
口②②口 |--②-|
口口口口 |--③-|
口③④口 |④---|
76
①③③① |①-②-|
②④④② |③-④-|
口口口口
口口口口

⑧口口⑧
口口口口
⑤⑦⑦⑤ |⑤-⑥-|
口⑥⑥口 |⑦-⑧-|
77
口口①口 |--①-|
②③④⑦ |--②③|
口口⑥口 |④-⑤-|
口⑤口口 |⑥-⑦-|
78
①③③① |①-②-|
口④④口 |③-④-|
口口口口
②口口②

⑧口口⑧
口口口口
⑤⑦⑦⑤ |⑤-⑥-|
口⑥⑥口 |⑦-⑧-|
79
口口①口 |--①-|
②③④⑦ |--②③|
口口⑥口 |④-⑤-|
口⑤口口 |⑥-⑦-|
80
①①②② |①-②-|
⑧⑤⑤⑧ |③-④-|
③⑦⑦④ |⑤-⑥-|
③⑥⑥④ |⑦-⑧-|
81
②③④① |--①-|
口口⑥⑦ |--②③|
口⑤口口 |④-⑤-|
口口口口 |⑥-⑦-|
82
⑤⑤口口 |①---|
口口⑤⑤ |②---|
②③④② |③-④-|
①③④① |--⑤-|
83
口口①① |--①-|
①①口口 |--②-|
②口口② |--③-|
口③④口 |④---|
84
口口口口 |①---|
①口口① |----|
口口口口 |----|
口口口口 |----|

不確定度: 0

最終更新:2016年04月18日 00:37