Far east nightbird
猫叉Master

BASIC

Level: 4
BPM: 180
Notes: 256

1
口口口口 |----|
口口口口 |----|
口口口口 |----|
口口口口 |----|
2
口口口口 |----|
口口口口 |----|
①口口口 |----|
②口口口 |①-②-|
3
口口口口 |----|
口①口口 |①-②-|
口②③口 |----|
口口④口 |③-④-|
4
口口口③ |----|
口口④① |①-②-|
口口口② |----|
口口口口 |③-④-|
5
口①口口 |----|
②口口口 |①-②-|
口④口口 |----|
③口口口 |③-④-|
6
口口口口 |----|
口口口口 |①-②-|
③口①口 |----|
④口口② |③-④-|
7
口口口口 |----|
口①口口 |①-②-|
口②③口 |----|
口口④口 |③-④-|
8
口口口③ |----|
口口④① |①-②-|
口口口② |----|
口口口口 |③-④-|
9
口①口口 |----|
②口口口 |①-②-|
口④口口 |----|
③口口口 |③-④-|
10
口口口口 |----|
口口口口 |①-②-|
口口①口 |----|
口口口② |----|
11
口口口口 |①---|
口口口口 |----|
口口口口 |----|
口①①口 |----|
12
口口口口 |①---|
口口口① |--②-|
口口口口 |③--④|
⑤④③② |--⑤-|
13
口口口口 |----|
口口口口 |----|
口口口口 |----|
口口口口 |----|
14
口口口口 |①---|
①口口口 |--②-|
口口口口 |③--④|
②③④⑤ |--⑤-|
15
口口口口 |----|
口口口口 |----|
口口口口 |----|
口口口口 |----|
16
口口口口 |①---|
口②口口 |②---|
口口①口 |③--④|
③④⑤口 |--⑤-|
17
口口口口 |----|
口口口口 |----|
口口口口 |----|
口口口口 |----|
18
口口口口 |①---|
口口②口 |②---|
口①口口 |③--④|
口⑤④③ |--⑤-|
19
口口口口 |----|
口口口口 |----|
口口口口 |----|
口口口口 |----|
20
口口口口 |①---②-|
①口口口 |--③---|
②口口口 |④--⑤|
③④⑤⑥ |--⑥-|
21
口口口口 |----|
口口口口 |----|
口口口口 |----|
口口口口 |----|
22
口口口口 |①---|
口口口① |②---|
口口口② |③--④|
⑤④③口 |--⑤-|
23
口口口口 |----|
口口口口 |----|
口口口口 |----|
口口口口 |----|
24
口口口口 |①---|
口②口口 |②---|
口口①口 |③--④|
③④⑤口 |--⑤-|
25
口口口口 |----|
口口口口 |----|
口口口口 |----|
口口口口 |----|
26
口口口口 |①---|
口口②口 |②---|
口①口口 |③--④|
口⑤④③ |--⑤-|
27
口口口口 |----|
口口口口 |----|
口口口口 |----|
口口口口 |----|
28
②①①口 |①---|
口③口口 |----|
口口口口 |----|
口口口口 |②-③-|
29
口口口① |----|
口口②口 |----|
口口口口 |----|
口口口口 |①-②-|
30
口口口口 |----|
①口口口 |----|
口口口口 |----|
口口口口 |①---|
31
口①口口 |①---|
口口②口 |②---|
口口口③ |③---|
口口④口 |④---|
32
口口口口 |----|
口口口口 |----|
口口口口 |----|
口口口口 |----|
33
口口口口 |①---|
口口口口 |②---|
口②口④ |③---|
①口③口 |④---|
34
口口口口 |----|
口口口口 |----|
口口口口 |----|
口口口口 |----|
35
口口口口 |----|
口①①口 |----|
口②②口 |①---|
口口口口 |②---|
36
口口口口 |①---|
口口口口 |----|
口口②口 |----|
口①①③ |②-③-|
37
口口口口 |----|
口口口口 |----|
口①口口 |----|
②口口口 |①-②-|
38
口口口口 |----|
口口口口 |----|
①口口口 |----|
口口口口 |①---|
39
口口②口 |①---|
口①口③ |②---|
口口④口 |③---|
口口口口 |④---|
40
口口口① |----|
口口②口 |----|
口口口口 |----|
口口口口 |①-②-|
41
③口口口 |----|
口④口口 |①-②-|
口①口口 |----|
②口口口 |③-④-|
42
口口口口 |----|
口口口口 |----|
口口口口 |----|
口口口口 |----|
43
口口口口 |----|
口口口口 |----|
口口口口 |----|
口口口口 |----|
44
①④口口 |①---|
口②口口 |②---|
口口③口 |③---|
口口口口 |④---|
45
口口口口 |①---|
口口①口 |②---|
口口口② |③---|
口口④③ |④---|
46
口口口口 |①---|
口口口③ |②---|
口口②口 |③---|
④①口口 |④---|
47
口④③口 |①---|
口口②口 |②---|
口①口口 |③---|
口口口口 |④---|
48
①口口口 |①---|
④②口口 |②---|
口口③口 |③---|
口口口口 |④---|
49
口口口口 |①---|
口口口口 |②---|
口①口④ |③---|
口口②③ |④---|
50
口口口④ |①---|
口口口① |②---|
口口②口 |③---|
口③口口 |④---|
51
口口口口 |①---|
④口①口 |②---|
③②口口 |③---|
口口口口 |④---|
52
①①②② |①---|
口口口口 |----|
口口口口 |②---|
口口口口 |----|
53
口口口口 |①---|
①①②② |----|
口口口口 |②---|
口口口口 |----|
54
口口④口 |①---|
口③口口 |②---|
口口②口 |③---|
口①口口 |④---|
55
口①口口 |①---|
口口②口 |②---|
口③口口 |③---|
口口④口 |④---|
56
口口口口 |①---|
口口口口 |----|
②口口② |②---|
①口口① |----|
57
②口口② |①---|
①口口① |----|
口口口口 |②---|
口口口口 |----|
58
口①口口 |①---|
口口②口 |②---|
口③口口 |③---|
口口④口 |④---|
59
口口④口 |①---|
口③口口 |②---|
口口②口 |③---|
口①口口 |④---|
60
①口④① |①---②-|
口口③② |----|
口口口口 |③---|
口口口口 |--④---|
61
口①口口 |----①-|
口②口口 |----|
口③口口 |②---|
口口口口 |--③---|
62
口口口口 |----①-|
口口口口 |----|
口口③口 |②---|
口①②口 |--③---|
63
口口②③ |----①-|
口口①口 |----|
口口口口 |②---|
口口口口 |--③---|
64
口口口口 |----①-|
口口口① |----|
口口口② |②---|
口口口③ |--③---|
65
口口口口 |----①-|
口口口口 |----|
口口口口 |②---|
口②①口 |----|
66
口口口口 |----|
口口口口 |----|
口口口口 |----|
口口口口 |----|
67
口①口口 |①---|
口②口口 |②---|
口口③口 |③---|
口口④口 |④---|
68
口口口③ |----|
口口口② |①---|
口口口① |②---|
口口口口 |③---|
69
口口①口 |①---|
口口②口 |②---|
口③口口 |③---|
口④口口 |④---|
70
③口口口 |----|
②口口口 |①---|
①口口口 |②---|
口口口口 |③---|
71
口①口口 |①---|
口口②口 |--②-|
口③口口 |----|
口口口口 |③---|
72
口口口口 |----|
口口口③ |①---|
口口口② |②---|
口口①口 |③---|
73
④③口① |①---|
口口②口 |②---|
口口口口 |③---|
口口口口 |④---|
74
口口口口 |①---|
口①③口 |②---|
口④②口 |③---|
口口口口 |④---|
75
口①口口 |①---|
口②口口 |②---|
口口③口 |③---|
口口④口 |④---|
76
口口口③ |----|
口口口② |①---|
口口口① |②---|
口口口口 |③---|
77
口口①口 |①---|
口口②口 |②---|
口③口口 |③---|
口④口口 |④---|
78
①口口口 |----|
口口口口 |----|
口口口口 |----|
口口口口 |①---|
79
口①口口 |①---|
口口②口 |--②-|
口③口口 |----|
口口口口 |③---|
80
口口口口 |----|
口口口③ |①---|
口口口② |②---|
口口①口 |③---|
81
④③口① |①---|
口口②口 |②---|
口口口口 |③---|
口口口口 |④---|
82
口口口口 |①---|
口①③口 |②---|
口④②口 |③---|
口口口口 |④---|
83
口口口口 |①---|
口口口口 |----|
口口口口 |----|
口①①口 |----|
84
口口口口 |----|
口口口口 |----|
口口口口 |----|
口口口口 |----|
85
③口口③ |①---|
②口口② |--②-|
①口口① |----|
口口口口 |③---|


不确定度: 0

タグ:

+ タグ編集
  • タグ:

このサイトはreCAPTCHAによって保護されており、Googleの プライバシーポリシー利用規約 が適用されます。

最終更新:2012年11月10日 13:56