取り残された美術(Arranged:HiZuMi)
幽閉サテライト feat. Senya

BASIC

Level: 3
BPM: 160
Notes: 303

1
口口口口 |----|
口口口口 |----|
口口口口 |----|
口口口口 |----|
2
口口口口 |①---|
口口口口 |----|
口②①口 |②---|
口口口口 |----|
3
口口口口 |①---|
④③②① |②---|
口口口口 |③---|
口口口口 |④---|
4
口口口口 |①---|
口口口口 |②---|
④③②① |③---|
口口口口 |④---|
5
口口口口 |①---|
口口口口 |②---|
口口口口 |③---|
口③②① |----|
6
口口口口 |①---|
口口③③ |②---|
口口②口 |③---|
口口①口 |----|
7
口口口口 |①---|
③③口口 |②---|
口②口口 |③---|
口①口口 |----|
8
②②①口 |①---|
④④③口 |②---|
口口口口 |③---|
口口口口 |④---|
9
口口口口 |①---|
口口口口 |②---|
②②①口 |③---|
④④③口 |④---|
10
口口口④ |①---|
口口口③ |②---|
口口口② |③---|
口口口① |④---|
11
③③①口 |①---|
口口②口 |②---|
④④口口 |③---|
口口口口 |④---|
12
口口口④ |①---|
口口口③ |②---|
口口口② |③---|
口口口① |④---|
13
口口①口 |①---|
③口②④ |②---|
③口口④ |③---|
口口口口 |④---|
14
④口口口 |①---|
③口口口 |②---|
②口口口 |③---|
①口口口 |④---|
15
口①③③ |①---|
口②口口 |②---|
口口④④ |③---|
口口口口 |④---|
16
④口口口 |①---|
③口口口 |②---|
②口口口 |③---|
①口口口 |④---|
17
口口①口 |①---|
口②口口 |②---|
口口③口 |③---|
口④口口 |④---|
18
口口口口 |①---|
②④③① |②---|
②④③① |③---|
口口口口 |④---|
19
口口口口 |①---|
口口口口 |----|
口口口口 |②---|
口②①口 |----|
20
口口口口 |①---|
口口口口 |②---|
口③②① |③---|
口口口口 |----|
21
口口口口 |①---|
口口口口 |----|
口口口口 |②---|
口①②口 |----|
22
口口口口 |①---|
口口口口 |②---|
①②③口 |③---|
口口口口 |----|
23
口口口口 |①---|
口②①口 |----|
口口口口 |②---|
口口口口 |----|
24
口③②① |①---|
口口口口 |②---|
口口口口 |③---|
口口口口 |----|
25
口口口口 |①---|
口①②口 |----|
口口口口 |②---|
口口口口 |----|
26
①②③口 |①---|
口口口口 |②---|
口口口口 |③---|
口口口口 |----|
27
口口口口 |----|
口口①① |----|
口口口口 |①---|
口口口口 |----|
28
口口口口 |①---|
口①口口 |②---|
口②口口 |③---|
口③口口 |----|
29
口口口口 |①---|
②②口口 |----|
①①口口 |②---|
口口口口 |----|
30
口口口口 |①---|
口口③口 |②---|
口口②口 |③---|
口口①口 |----|
31
口口口口 |①---|
口口②② |----|
口口①① |②---|
口口口口 |----|
32
口口口口 |①---|
口①口口 |②---|
口②口口 |③---|
口③口口 |----|
33
口口口口 |①---|
②②口口 |----|
①①口口 |②---|
口口口口 |----|
34
口①①口 |①---|
口②②口 |②---|
口③③口 |③---|
口口口口 |----|
35
口口口口 |①---|
口②②口 |----|
口口口口 |②---|
口①①口 |----|
36
口口口① |①--②|
口口口② |--③-|
口口口③ |--④-|
口④④口 |----|
37
②口口② |①---|
口口口口 |----|
口口口口 |②---|
①口口① |----|
38
口①口口 |①--②|
口②口口 |--③-|
口③口口 |--④-|
口④④口 |----|
39
①①①① |①---|
②②②② |----|
口口口口 |②---|
口口口口 |----|
40
口口口口 |①---|
口口③口 |②---|
口②口口 |③---|
口口①口 |----|
41
④③②① |①---|
口口口口 |②---|
口口口口 |③---|
口口口口 |④---|
42
口口口口 |①---|
口②①口 |②---|
口④③口 |③---|
口口口口 |④---|
43
口口口口 |①---|
②④③① |②---|
②④③① |③---|
口口口口 |④---|
44
口口口口 |①---|
④④②② |②---|
口口口口 |③---|
③口口① |④---|
45
口④口口 |①---|
口口③口 |②---|
口②口口 |③---|
口口①口 |④---|
46
③④②① |①---|
口口口口 |②---|
口口口口 |③---|
口口口口 |④---|
47
口口口口 |①---|
口①①口 |②---|
口②②口 |③---|
口③③口 |----|
48
口口口口 |①---|
口口③③ |②---|
口口口② |③---|
口口口① |----|
49
口口口口 |①---|
③③口口 |②---|
②口口口 |③---|
①口口口 |----|
50
口口口口 |①---|
口②①口 |----|
口①②口 |②---|
口口口口 |----|
51
①口口① |①---|
口口口口 |----|
口口口口 |②---|
口②②口 |----|
52
口口口口 |①---|
④④②② |②---|
口口口口 |③---|
③口口① |④---|
53
口④口口 |①---|
口口③口 |②---|
口②口口 |③---|
口口①口 |④---|
54
③④②① |①---|
口口口口 |②---|
口口口口 |③---|
口口口口 |④---|
55
口口口口 |①---|
口①①口 |②---|
口②②口 |③---|
口③③口 |----|
56
口口口口 |①---|
口口③③ |②---|
口口口② |③---|
口口口① |----|
57
口口口口 |①---|
③③口口 |②---|
②口口口 |③---|
①口口口 |----|
58
②②①口 |①---|
④④③口 |②---|
口口口口 |③---|
口口口口 |④---|
59
口口口口 |①---|
口口口口 |②---|
②②①口 |③---|
④④③口 |④---|
60
口口口口 |①---|
④口口③ |②---|
②口口① |③---|
口口口口 |④---|
61
口①①口 |①---|
口②②口 |②---|
口③③口 |③---|
口口口口 |----|
62
口口口口 |①---|
口口口口 |②---|
口口口口 |③---|
①②③④ |④---|
63
口口口口 |①---|
口③③口 |②---|
②④④① |③---|
口口口口 |④---|
64
口口口口 |①---|
④口口③ |②---|
②口口① |③---|
口口口口 |④---|
65
口①①口 |①---|
口②②口 |②---|
口③③口 |③---|
口口口口 |----|
66
②②④④ |①---|
口口口口 |②---|
①口口③ |③---|
口口口口 |④---|
67
口口口口 |①---|
口①①口 |②---|
口②②口 |③---|
口③③口 |----|
68
口口口口 |①---|
②④③① |②---|
②④③① |③---|
口口口口 |④---|
69
①①①① |①---|
口口口口 |----|
口口口口 |----|
口口口口 |----|

不確定度: 0

最終更新:2016年04月18日 00:36