取り残された美術(Arranged:HiZuMi)
幽閉サテライト feat. Senya

ADVANCED

Level: 7
BPM: 160
Notes: 467

1
口口口口 |----|
口口口口 |----|
口口口口 |----|
口口口口 |----|
2
口口③① |①---|
口口②口 |--②-|
口④口口 |③---|
口口口口 |--④-|
3
④口口② |①-②-|
③⑧⑥① |③-④-|
口⑦⑤口 |⑤-⑥-|
口口口口 |⑦-⑧-|
4
口⑥⑤口 |①-②-|
口⑧⑦口 |③-④-|
④口口③ |⑤-⑥-|
②口口① |⑦-⑧-|
5
②口口① |①-②-|
④口口③ |③-④-|
口口口⑤ |⑤---|
口口口口 |----|
6
④⑤⑤口 |①-②-|
③口⑥口 |③-④-|
②口⑦口 |⑤---|
①口口口 |⑥-⑦-|
7
口口口口 |①--②|
口⑥口口 |--③-|
口⑤口④ |④---|
①②③口 |⑤-⑥-|
8
口口①① |①---|
④④口口 |②---|
口口②② |③---|
③③口口 |④---|
9
④④①① |①---|
口口口口 |②---|
口口口口 |③---|
③③②② |④---|
10
口口①⑤ |①-②-|
⑥②口口 |③-④-|
口口③⑦ |⑤-⑥-|
⑧④口口 |⑦-⑧-|
11
⑤①③⑥ |①-②-|
口②④口 |③-④-|
口口口口 |⑤---|
⑥口口⑤ |⑥---|
12
口⑥口⑧ |①-②-|
⑤口⑦口 |③-④-|
口②③口 |⑤-⑥-|
口④①口 |⑦-⑧-|
13
⑤⑤口口 |①-②-|
口口口口 |③-④-|
①③④② |⑤---|
口口⑥⑥ |⑥---|
14
口口①⑤ |①-②-|
⑥②口口 |③-④-|
口口③⑦ |⑤-⑥-|
⑧④口口 |⑦-⑧-|
15
⑤①③⑥ |①-②-|
口②④口 |③-④-|
口口口口 |⑤---|
⑥口口⑤ |⑥---|
16
口⑥口⑧ |①-②-|
⑤口⑦口 |③-④-|
口②③口 |⑤-⑥-|
口④①口 |⑦-⑧-|
17
口④⑧口 |①-②-|
③口口⑦ |③-④-|
口②⑥口 |⑤-⑥-|
①口口⑤ |⑦-⑧-|
18
①口④口 |①---|
①口④口 |②---|
口②口③ |③---|
口②口③ |④---|
19
②口口① |①---|
口口口口 |②---|
口口口口 |③---|
口④③口 |④---|
20
口口口口 |①---|
①②口① |②-③-|
口口③口 |④---|
口④口口 |----|
21
①口口② |①---|
口口口口 |②---|
口口口口 |③---|
口③④口 |④---|
22
口④口口 |①---|
①口③① |②-③-|
口②口口 |④---|
口口口口 |----|
23
②口口① |①---|
口口口口 |②---|
口口口口 |③---|
口④③口 |④---|
24
口口口口 |①---|
①②口① |②-③-|
口口③口 |④---|
口④口口 |----|
25
④④①① |①---|
③口口⑥ |②-③-|
②口口⑤ |④---|
口口口口 |⑤-⑥-|
26
口口①① |①---|
口②②口 |②-③-|
口③③口 |④---|
口④④口 |----|
27
②④③口 |--①-|
口①口口 |②---|
口口①口 |③---|
口③④② |④---|
28
口口口口 |①---|
①②口① |②-③-|
口口③口 |④---|
口④口口 |----|
29
①③④② |①---|
口口口口 |②---|
口口口口 |③---|
②④③① |④---|
30
口④口口 |①---|
①口③① |②-③-|
口②口口 |④---|
口口口口 |----|
31
①③④② |①---|
口口口口 |②---|
口口口口 |③---|
②④③① |④---|
32
口口口口 |①---|
①②口① |②-③-|
口口③口 |④---|
口④口口 |----|
33
④④①① |①---|
③口口⑥ |②-③-|
②口口⑤ |④---|
口口口口 |⑤-⑥-|
34
口口①① |①---|
口②②口 |②-③-|
口③③口 |④---|
口④④口 |----|
35
口口口② |--①-|
口③④① |②-③④|
⑤⑥⑦口 |--⑤-|
口口口口 |⑥-⑦-|
36
①①②② |①--②|
③③口口 |--③-|
口口④④ |--④-|
口口口口 |----|
37
②口口口 |--①-|
①④③口 |②-③④|
口⑦⑥⑤ |--⑤-|
口口口口 |⑥-⑦-|
38
②②①① |①--②|
口口③③ |--③-|
④④口口 |--④-|
口口口口 |----|
39
①①①① |①---|
口口口口 |----|
口口口口 |②---|
②②②② |----|
40
①口口① |①---|
口④④口 |②-③-|
口③口口 |④---|
口口②口 |----|
41
④口口① |①---|
④口口① |②---|
口③②口 |③---|
口③②口 |④---|
42
口①①口 |①---|
口①①口 |----|
口口口口 |----|
口口口口 |----|
43
①口④口 |①---|
①口④口 |②---|
口②口③ |③---|
口②口③ |④---|
44
①口口① |①---|
③口口③ |--②-|
口口口口 |③---|
口②④口 |--④-|
45
口③⑥⑤ |①-②-|
口④⑧口 |③-④-|
①②⑦口 |⑤-⑥-|
口口口口 |⑦-⑧-|
46
①③口④ |①-②-|
口口口⑤ |③-④-|
⑥口口口 |⑤-⑥-|
⑦口⑧② |⑦-⑧-|
47
口口口口 |①-②-|
口①②口 |③-④-|
口③④口 |⑤---|
口⑤口口 |----|
48
④⑤⑤口 |①-②-|
③口⑥口 |③-④-|
②口⑦口 |⑤---|
①口口口 |⑥-⑦-|
49
口口口口 |①--②|
口⑥口口 |--③-|
口⑤口④ |④---|
①②③口 |⑤-⑥-|
50
②口口① |①---|
②口口① |②---|
口口口口 |③--④|
口⑤④③ |--⑤-|
51
口口②口 |①---|
口口③口 |--②③|
①口④口 |④---|
口口口口 |----|
52
①口口① |①---|
③口口③ |--②-|
口口口口 |③---|
口②④口 |--④-|
53
口③⑥⑤ |①-②-|
口④⑧口 |③-④-|
①②⑦口 |⑤-⑥-|
口口口口 |⑦-⑧-|
54
①③口④ |①-②-|
口口口⑤ |③-④-|
⑥口口口 |⑤-⑥-|
⑦口⑧② |⑦-⑧-|
55
口口口口 |①-②-|
口①②口 |③-④-|
口③④口 |⑤---|
口⑤口口 |----|
56
④口⑤口 |①-②-|
③⑥⑦口 |③-④-|
②口⑧口 |⑤-⑥-|
①口口口 |⑦-⑧-|
57
口口口口 |①--②|
口⑥口口 |--③-|
口⑤口④ |④---|
①②③口 |⑤-⑥-|
58
口口①① |①---|
④④口口 |②---|
口口②② |③---|
③③口口 |④---|
59
④④①① |①---|
口口口口 |②---|
口口口口 |③---|
③③②② |④---|
60
口口口口 |①---|
口①①口 |②-③-|
③口口②
口口口口

口⑤⑤口
口⑥⑥口
口口口口 |④--⑤|
口④④口 |--⑥-|
61
①口口① |①---|
口口口口 |②-③-|
口口②口 |④---|
口③④口 |----|
62
口口口④ |①--②|
①②③口 |--③-|
⑤口口⑥ |④---|
口口口口 |⑤-⑥-|
63
⑤口口④ |①--②|
⑦口口⑥ |--③-|
口口口口 |④-⑤-|
口③②① |⑥-⑦-|
64
口口口口 |①---|
口①①口 |②-③-|
③口口②
口口口口

口⑤⑤口
口⑥⑥口
口口口口 |④--⑤|
口④④口 |--⑥-|
65
①口口① |①---|
口口口口 |②-③-|
口口②口 |④---|
口③④口 |----|
66
①口口① |①---|
②③口口 |②-③-|
④口口④ |④---|
口口⑥⑤ |⑤-⑥-|
67
②口口① |①-②-|
口⑤③口 |③④-⑤|
口⑥④口 |⑥---|
口口口口 |----|
68
①口④口 |①---|
①口④口 |②---|
口②口③ |③---|
口②口③ |④---|
69
①口口① |①---|
①口口① |----|
口口口口 |----|
口口口口 |----|

不確定度: 0

最終更新:2016年04月18日 00:36