ホメ猫☆センセーション
P*Light feat. mow*2

BASIC

Level: 4
BPM: 200
Notes: 389

1
口口口口 |----|
口口口口 |----|
口口口口 |----|
口口口口 |----|
2
口口口口 |----|
口口口口 |----|
口口口口 |----|
口口口口 |----|
3
口口口口 |①---|
口①①口 |----|
口口口口 |----|
口口口口 |----|
4
口口口口 |①---|
口口口口 |----|
口口口口 |②---|
口②①口 |----|
5
口口口口 |①---|
口①①口 |----|
口口口口 |----|
口口口口 |----|
6
口口口口 |----|
口口口口 |----|
口口口口 |----|
口口口口 |----|
7
①口口① |①---|
②口口② |----|
口口口口 |----|
口口口口 |--②-|
8
口口口口 |----|
口口口口 |----|
口口口口 |----|
口口口口 |----|
9
口口口口 |①---|
口①①口 |--②-|
口②②口 |----|
口③③口 |③---|
10
口③③口 |①---|
口口口口 |----|
①②②① |②---|
口口口口 |③---|
11
②④口口 |①---|
①③口口 |②---|
口口口口 |③---|
口口口口 |④---|
12
口口②口 |①---|
口口①口 |②---|
口口口口 |----|
口口口口 |----|
13
口口口口 |①---|
口口口口 |②---|
口口③① |③---|
口口④② |④---|
14
①②③口 |①---|
①②③口 |②---|
口口口口 |③---|
口口口口 |----|
15
口口口口 |①---|
口口口口 |②---|
口③④口 |③---|
口①②口 |④---|
16
口③④口 |①---|
口①②口 |②---|
口口口口 |③---|
口口口口 |④---|
17
①口口② |①---|
③口口④ |②---|
口口口口 |③---|
口口口口 |④---|
18
口②②口 |①---|
口口口口 |----|
口①①口 |----|
口口口口 |②---|
19
口口口口 |①---|
口口②① |----|
口口口口 |②---|
口口口口 |----|
20
口口口口 |①---|
②①口口 |----|
口口口口 |②---|
口口口口 |----|
21
口口口口 |①---|
口口口口 |----|
①②口口 |②---|
口口口口 |----|
22
口口口口 |①---|
口口口口 |----|
口口①② |②---|
口口口口 |----|
23
口口口口 |①---|
口口口口 |----|
口口口口 |②---|
口口②① |----|
24
口口口口 |①---|
口口口口 |----|
口口口口 |②---|
②①口口 |----|
25
口口口口 |①---|
口口口口 |----|
①②口口 |②---|
口口口口 |----|
26
口口①① |①---|
口口②② |②---|
口口③③ |③---|
口口口口 |----|
27
①口②口 |①---|
③口④口 |②---|
口口口口 |③---|
口口口口 |④---|
28
口口口口 |①---|
口口口口 |②---|
①口②口 |③---|
③口④口 |④---|
29
口口口口 |①---|
口口口口 |②---|
口④口③ |③---|
口②口① |④---|
30
口④口③ |①---|
口②口① |②---|
口口口口 |③---|
口口口口 |④---|
31
口口①口 |①---|
口口②口 |②---|
口口③口 |③---|
口口④口 |④---|
32
①口口口 |①---|
②口口口 |②---|
③口口口 |③---|
④口口口 |④---|
33
口口口① |①---|
口口口② |②---|
口口口③ |③---|
口口口④ |④---|
34
口口口口 |①---|
口③③口 |--②-|
口②②口 |----|
口①①口 |③---|
35
①口②① |①---|
口口口口 |----|
口口口口 |②---|
口口口口 |----|
36
口口口口 |①---|
①②口① |----|
口口口口 |②---|
口口口口 |----|
37
口口口口 |①---|
口口口口 |----|
①口②① |②---|
口口口口 |----|
38
口①①口 |①---|
口②②口 |②---|
口③③口 |③---|
口口口口 |----|
39
口口口口 |①---|
口口③② |②---|
口口④① |③---|
口口口口 |④---|
40
口口口口 |①---|
③②口口 |②---|
④①口口 |③---|
口口口口 |④---|
41
口口③口 |----|
口口②口 |①---|
口口①口 |②---|
口口口口 |③---|
42
口①口口 |①---|
口②口口 |②---|
口③口口 |③---|
口④口口 |④---|
43
④③②① |①---|
④③②① |②---|
口口口口 |③---|
口口口口 |④---|
44
口口口口 |①---|
口口口口 |②---|
④③②① |③---|
④③②① |④---|
45
口①①口 |①---|
口②②口 |②---|
口④③口 |③-④-|
口⑤⑤口 |--⑤-|
46
①口口① |----|
口口口口 |----|
口口口口 |----|
口口口口 |①---|
47
口口口口 |①---|
口②①口 |②---|
口④③口 |③---|
口口口口 |④---|
48
口口口口 |①---|
口口口口 |②---|
④口口③ |③---|
②口口① |④---|
49
口②①口 |①---|
口④③口 |②---|
口口口口 |③---|
口口口口 |④---|
50
口口口口 |①---|
口口口口 |②---|
口②①口 |③---|
口④③口 |④---|
51
口口口④ |①---|
口口口③ |②---|
口口口② |③---|
口口口① |④---|
52
④口口口 |①---|
③口口口 |②---|
②口口口 |③---|
①口口口 |④---|
53
⑤口口⑤ |①---|
④口口④ |②-③-|
口③②口 |--④-|
口①①口 |--⑤-|
54
口④④口 |--①-|
口②①口 |②---|
口③③口 |③---|
口口口口 |④---|
55
口口口口 |①---|
口②①口 |②---|
口④③口 |③---|
口口口口 |④---|
56
口口口口 |①---|
口口口口 |②---|
④口口③ |③---|
②口口① |④---|
57
口②①口 |①---|
口④③口 |②---|
口口口口 |③---|
口口口口 |④---|
58
口口口口 |①---|
口口口口 |②---|
口②①口 |③---|
口④③口 |④---|
59
口口口④ |①---|
口口口③ |②---|
口口口② |③---|
口口口① |④---|
60
④口口口 |①---|
③口口口 |②---|
②口口口 |③---|
①口口口 |④---|
61
⑤口口⑤ |①---|
④口口④ |②-③-|
口③②口 |--④-|
口①①口 |--⑤-|
62
口②②口 |----|
口口口口 |----|
口①①口 |①---|
口口口口 |②---|
63
口口口口 |①---|
④③②① |②---|
口口口口 |③---|
口口口口 |④---|
64
口口口口 |①---|
口口口口 |②---|
④③②① |③---|
口口口口 |④---|
65
口口口① |①---|
④②口口 |②---|
口口③口 |③---|
口口口口 |④---|
66
口口①口 |①---|
口口口口 |②---|
④②口口 |③---|
口口口③ |④---|
67
口②口口 |①---|
④口口① |②---|
口口③口 |③---|
口口口口 |④---|
68
口④口口 |①---|
口口口口 |②---|
口口③① |③---|
②口口口 |④---|
69
口口口① |①---|
④口口口 |②---|
口②口口 |③---|
口口口③ |④---|
70
④口①口 |①---|
口口口口 |②---|
口②口口 |③---|
口口口③ |④---|
71
口口口口 |①---|
④口口① |②---|
口②口口 |③---|
口口口③ |④---|
72
口③③① |①---|
口口口口 |----|
口②②口 |②---|
口口口口 |③---|
73
口口口口 |①---|
口①①口 |----|
口口口口 |----|
口口口口 |----|
74
口口口口 |①---|
口口口口 |----|
口口口口 |②---|
口②①口 |----|
75
口口口口 |①---|
口①①口 |----|
口口口口 |----|
口口口口 |----|
76
口口口口 |----|
口口口口 |----|
口口口口 |----|
口口口口 |----|
77
①口口① |①---|
②口口② |----|
口口口口 |----|
口口口口 |--②-|
78
口口口口 |----|
口口口口 |----|
口口口口 |----|
口口口口 |----|
79
口⑤⑤口 |①---|
口④④口 |②-③-|
口③②口 |--④-|
口①①口 |--⑤-|
80
口②②口 |----|
口口口口 |----|
口①①口 |①---|
口口口口 |②---|
81
口口口口 |①---|
口②①口 |②---|
口④③口 |③---|
口口口口 |④---|
82
口口口口 |①---|
口口口口 |②---|
④口口③ |③---|
②口口① |④---|
83
口②①口 |①---|
口④③口 |②---|
口口口口 |③---|
口口口口 |④---|
84
口口口口 |①---|
口口口口 |②---|
口②①口 |③---|
口④③口 |④---|
85
口口口④ |①---|
口口口③ |②---|
口口口② |③---|
口口口① |④---|
86
④口口口 |①---|
③口口口 |②---|
②口口口 |③---|
①口口口 |④---|
87
⑤口口⑤ |①---|
④口口④ |②-③-|
口③②口 |--④-|
口①①口 |--⑤-|
88
口①①口 |①---|
口③②口 |②-③-|
④口口④ |--④-|
⑤口口⑤ |--⑤-|
89
口④④口 |①---|
口③③口 |②---|
口②②口 |③---|
口①①口 |④---|
90
口②②口 |----|
口口口口 |----|
口①①口 |①---|
口口口口 |②---|
91
②④口口 |①---|
①③口口 |②---|
口口口口 |③---|
口口口口 |④---|
92
口口②口 |①---|
口口①口 |②---|
口口口口 |----|
口口口口 |----|
93
口口口口 |①---|
口口口口 |②---|
口口③① |③---|
口口④② |④---|
94
①②③口 |①---|
①②③口 |②---|
口口口口 |③---|
口口口口 |----|
95
口口口口 |①---|
口口口口 |②---|
口③④口 |③---|
口①②口 |④---|
96
口③④口 |①---|
口①②口 |②---|
口口口口 |③---|
口口口口 |④---|
97
①口口② |①---|
③口口④ |②---|
口口口口 |③---|
口口口口 |④---|
98
口口口口 |①---|
④口口④ |②---|
③①①③ |③---|
②口口② |④---|

不確定度: 0

最終更新:2016年04月18日 00:43