ホメ猫☆センセーション
P*Light feat. mow*2

ADVANCED

Level: 8
BPM: 200
Notes: 631

1
口口口口 |----|
口口口口 |----|
口口口口 |----|
口口口口 |----|
2
口口口口 |----|
①口口口 |----|
口口口口 |----|
口口口口 |①---|
3
口口口口 |①---|
口①口口 |--②-|
口口②② |----|
口口口③ |--③-|
4
口口口口 |①-②-|
口⑧⑦⑥ |③-④-|
口⑤④③ |⑤-⑥-|
口②①口 |⑦-⑧-|
5
口口口① |①---|
口口口口 |--②-|
口口口口 |③---|
口②③口 |----|
6
口口口口 |----|
口口口口 |----|
口口②口 |----|
口①口口 |①-②-|
7
②口口② |①---|
③①口③ |②-③-|
口口口口 |--④-|
④⑤⑤④ |--⑤-|
8
口口③口 |--①-|
⑥②口口 |②-③-|
④口①⑤ |--④-|
口口口口 |⑤-⑥-|
9
②②③③ |①-②-|
④④口① |--③-|
口口口口 |----|
口口口口 |④---|
10
②②口口 |①-②-|
口口③口 |--③-|
口口①①
口口口口

口口口口
口口口口
口④⑦口 |④-⑤-|
口⑥⑤口 |⑥-⑦-|
11
④③②① |①-②-|
口口⑤口 |③-④-|
口⑥口口 |--⑤-|
口口⑦口 |⑥-⑦-|
12
口口④⑤ |①-②-|
①口口口 |③---|
②口口口 |--④-|
③口口口 |⑤---|
13
口口⑦口 |①-②-|
口⑥口口 |③-④-|
口口⑤口 |--⑤-|
④③②① |⑥-⑦-|
14
②口口② |①---|
⑤④口口 |②---|
①口口① |③-④-|
③口口③ |⑤---|
15
口口口口 |①-②-|
⑤⑥⑦口 |③-④-|
④③②① |--⑤-|
口口口口 |⑥-⑦-|
16
⑦⑤③① |①-②-|
口口口口 |③-④-|
⑧⑥④② |⑤-⑥-|
口口口口 |⑦-⑧-|
17
口口口口 |①---|
④④②② |②---|
口口口口 |③---|
③③①① |④---|
18
口④⑤口 |①-②-|
口⑥③口 |③-④-|
口②⑦口 |⑤-⑥-|
口⑧①口 |⑦-⑧-|
19
②③④⑤ |①---|
口⑥⑥口 |②-③-|
①口口① |④-⑤-|
口口口口 |--⑥-|
20
口口口口 |--①-|
口口口口 |②-③-|
口口③口 |----|
④②①④ |④---|
21
①口口① |①---|
②④③② |②---|
口⑤⑤口 |③-④-|
口口口口 |--⑤-|
22
口口口口 |----|
口口口口 |----|
口口口口 |----|
口口口口 |----|
23
口口口口 |----|
①②④③ |①-②-|
口⑤口口 |③-④-|
口口⑥口 |⑤-⑥-|
24
⑤口口⑤ |①---|
口④口口 |②---|
口口③口 |③-④-|
②①口② |--⑤-|
25
口口口口 |----|
口口口口 |----|
口口口口 |----|
口口口口 |----|
26
③③①① |①-②-|
口⑤⑤口 |③-④-|
②②④④ |⑤-⑥-|
口⑥⑥口 |----|
27
②③④⑤ |①---|
口口口口 |②-③-|
口口口口 |④-⑤-|
①口⑥① |--⑥-|
28
口口口口 |①-②-|
口③②口 |③-④-|
口①④口 |----|
口口⑥⑤ |⑤-⑥-|
29
①②口口 |①-②-|
口口④③ |③-④-|
口口口口
口口口口

⑦口口⑦
口口口口
⑤⑥口口 |⑤-⑥-|
口口口口 |--⑦-|
30
口口口口 |--①-|
口口口口 |----|
口口口口 |----|
①②②① |②---|
31
口①①口 |①---|
口④③② |--②-|
口口⑤⑤ |③-④-|
口口口口 |--⑤-|
32
口口③口 |----|
④口②④ |①---|
口口口口 |②-③-|
①①口口 |--④-|
33
口口口口 |----|
口口口口 |----|
口口口口 |----|
口口口口 |----|
34
口口口口 |----|
口口口口 |----|
口口口口 |----|
口口口口 |----|
35
①①口口 |①---|
口③②口 |--②-|
口口④口 |③--④|
口⑤口口 |--⑤-|
36
口口⑤口 |--①-|
④口口口 |②---|
③口口② |③-④-|
口口口① |--⑤-|
37
口⑦⑧口 |①-②-|
口⑤⑥口 |③-④-|
口③④口 |⑤-⑥-|
口①②口 |⑦-⑧-|
38
①口口① |①---|
②口口② |②---|
③口口③ |③---|
口口口口 |----|
39
⑥口口⑤ |①-②-|
口④③口 |③-④-|
口②①口 |⑤-⑥-|
⑦口口⑦ |--⑦-|
40
③④⑤⑥ |--①-|
口口②口 |②---|
口口①口 |③-④-|
口口口口 |⑤-⑥-|
41
口口口口 |----|
口口口口 |----|
口口口口 |----|
口口口口 |----|
42
口口口口 |----|
口①①口 |----|
口口口口 |----|
口口口口 |①---|
43
②④口③ |①---|
口口口口 |②---|
口①①口 |③---|
③口④② |④---|
44
②④①③ |①---|
口口口口 |②---|
口口口口 |③---|
③①④② |④---|
45
②口①口 |①---|
口口口口 |②---|
口口口口
口①口②

口⑤⑤口
口③③口
口④④口 |③-④-|
口口口口 |--⑤-|
46
口口口口 |①-②-|
⑤口口⑥ |③-④-|
③⑦⑦④ |⑤-⑥-|
①口口② |⑦---|
47
①①①① |①---|
口口口口 |--②-|
口口口口
②②②②

口口口③
口口口口
口口口口 |----|
口口口口 |--③-|
48
口②①口 |①-②-|
口⑤④③ |③-④-|
口⑧⑦⑥ |⑤-⑥-|
口口口口 |⑦-⑧-|
49
②③口口 |①---|
口口口口 |--②-|
口口口口 |③---|
口口口① |----|
50
口口口口 |----|
口口口口 |----|
②口口口 |----|
①口口口 |①-②-|
51
口⑤⑤口 |①---|
①口③口 |②-③-|
口口②口 |--④-|
口④④口 |--⑤-|
52
口口口口 |--①-|
口口口③ |②-③-|
口口口② |--④-|
④⑤⑥① |⑤-⑥-|
53
⑤口口⑤ |①---|
口③②口 |②-③-|
④口口④ |--④-|
口口口① |--⑤-|
54
④④④④ |--①-|
口口口口 |②---|
③②①③ |③---|
口口口口 |④---|
55
口口口口 |①---|
②②②② |--②-|
口口口口
①①①①

口口口口
口口口口
口口口口 |----|
③口口口 |--③-|
56
口口口口 |①-②-|
⑥⑦⑧口 |③-④-|
③④⑤口 |⑤-⑥-|
口①②口 |⑦-⑧-|
57
①⑤⑤② |①---|
口口口③ |②-③-|
口④④口 |--④-|
口口口口 |--⑤-|
58
口口口口 |----|
口口口口 |----|
口口口口 |----|
口①①口 |①---|
59
④口口② |①---|
口口③口 |②-③-|
口①①口 |----|
口口口口 |--④-|
60
口口口口 |①---|
口①口② |②-③-|
口口③口 |--④-|
④⑤⑥口 |⑤-⑥-|
61
口⑤⑤口 |①---|
①③④② |②-③-|
①③④② |--④-|
口口口口 |--⑤-|
62
①口口口 |--①-|
③口口② |②-③-|
⑤口口④ |④-⑤-|
⑦口口⑥ |⑥-⑦-|
63
口④④口 |①---|
口③③口 |②---|
口②②口 |③---|
口①①口 |④---|
64
口⑥⑥① |①-②-|
②口口口 |③-④-|
口口口③ |⑤---|
④⑤⑤口 |⑥---|
65
口口口口 |①---|
①①口③ |②-③-|
口口口② |--④-|
④⑤⑥口 |⑤-⑥-|
66
口⑤⑤④ |①---|
③⑥⑥口 |②-③-|
口⑦⑦② |④-⑤-|
口口口① |⑥-⑦-|
67
口④口口 |①---|
口口⑤③ |②-③-|
口⑥口② |--④-|
口①①口 |⑤-⑥-|
68
⑤⑤④④ |①-②-|
口口口口 |--③-|
口口②口 |--④-|
③口①③ |⑤---|
69
口⑥口口 |①---|
口口⑤③ |②-③-|
口④口② |--④-|
口①①口 |⑤-⑥-|
70
①口⑥① |①---|
③⑤口口 |②-③-|
②口④口 |--④-|
口口口口 |⑤-⑥-|
71
①⑥口① |①---|
口口⑤③ |②-③-|
口④口② |--④-|
口口口口 |⑤-⑥-|
72
①口口① |①---|
③③③③ |----|
口口口口 |②---|
口②②口 |③---|
73
口①①口 |①---|
口口口口 |--②-|
口②②口 |----|
口口口③ |--③-|
74
口口口口 |①-②-|
口⑧⑦⑥ |③-④-|
口⑤④③ |⑤-⑥-|
口②①口 |⑦-⑧-|
75
口口口① |①---|
口口口口 |--②-|
口口口口 |③---|
口②③口 |----|
76
口口口口 |----|
口口口口 |----|
口口②口 |----|
口①口口 |①-②-|
77
②口口② |①---|
③①口③ |②-③-|
口口口口 |--④-|
④⑤⑤④ |--⑤-|
78
口口③口 |--①-|
⑥②口口 |②-③-|
④口①⑤ |--④-|
口口口口 |⑤-⑥-|
79
⑤③②⑤ |①---|
口④④① |②-③-|
口口口口 |--④-|
口口口口 |--⑤-|
80
④④④④ |--①-|
口口口口 |②---|
③①②③ |③---|
口口口口 |④---|
81
口口口口 |①---|
②②②② |--②-|
口口口口
①①①①

口口口口
口口口口
口口口口 |----|
③口口口 |--③-|
82
口口口口 |①-②-|
⑥⑦⑧口 |③-④-|
③④⑤口 |⑤-⑥-|
口①②口 |⑦-⑧-|
83
①⑤⑤② |①---|
口口口③ |②-③-|
口④④口 |--④-|
口口口口 |--⑤-|
84
口口口口 |----|
口口口口 |----|
口口口口 |----|
口①①口 |①---|
85
④口口② |①---|
口口③口 |②-③-|
口①①口 |----|
口口口口 |--④-|
86
口口口口 |①---|
口①口② |②-③-|
口口③口 |--④-|
④⑤⑥口 |⑤-⑥-|
87
⑤⑤口口 |①---|
①③④② |②-③-|
①③④② |--④-|
口口口口 |--⑤-|
88
口口①① |①---|
口口口⑤ |②-③-|
口④④⑤ |--④-|
②②③③ |--⑤-|
89
口口②口 |①-②-|
①③④口 |③-④-|
①⑤⑥口 |⑤-⑥-|
口⑦⑧口 |⑦-⑧-|
90
①口口口 |--①-|
③口口② |②-③-|
⑤口口④ |④-⑤-|
口口口⑥ |⑥---|
91
④③②① |①-②-|
口口⑤口 |③-④-|
口⑥口口 |--⑤-|
口口⑦口 |⑥-⑦-|
92
口口④⑤ |①-②-|
①口口口 |③---|
②口口口 |--④-|
③口口口 |⑤---|
93
口口⑦口 |①-②-|
口⑥口口 |③-④-|
口口⑤口 |--⑤-|
④③②① |⑥-⑦-|
94
②口口② |①---|
⑤④口口 |②---|
①口口① |③-④-|
③口口③ |⑤---|
95
口口口口 |①-②-|
⑤⑥⑦口 |③-④-|
④③②① |--⑤-|
口口口口 |⑥-⑦-|
96
⑦⑤③① |①-②-|
口口口口 |③-④-|
⑧⑥④② |⑤-⑥-|
口口口口 |⑦-⑧-|
97
口口口口 |①---|
④④②② |②---|
口口口口 |③---|
③③①① |④---|
98
②②①① |--①-|
⑥⑥⑤⑤ |②-③-|
④④③③ |④-⑤-|
口口⑦⑦ |⑥-⑦-|

不確定度: 0

最終更新:2016年04月18日 00:42