BEAT-NEW-WORLD
ビートまりお(COOL&CREATE)

BASIC

Level: 5
BPM: 190
Notes: 399

1
口口口口 |----|
口口口口 |----|
口口口口 |----|
口口口口 |----|
2
口口口口 |----|
口口口口 |----|
口口口口 |----|
口口口口 |----|
3
口口口口 |①---|
口口口口 |----|
口口口口 |②---|
口①②口 |----|
4
口口口口 |①---|
②口口② |----|
③口口③ |②---|
①口口口 |③---|
5
口口口口 |①---|
口口口口 |----|
口口口口 |②---|
口②①口 |----|
6
口口口口 |①---|
口口口口 |----|
口②②口 |②---|
口口口① |----|
7
口口口口 |①---|
口口口口 |----|
口口口口 |②---|
①口口② |----|
8
口口口口 |①---|
口②②口 |----|
口③③口 |②---|
口①口口 |③---|
9
③口口③ |①---|
口口口口 |----|
②口口① |②---|
口口口口 |--③-|
10
口①①口 |----|
口②②口 |①---|
口③③口 |②---|
口口口口 |③---|
11
口口口口 |①---|
②口口④ |②---|
口口口口 |③---|
①口口③ |④---|
12
③口口③ |①---|
④②口④ |②---|
口口口口 |③---|
口①口口 |④---|
13
口口口口 |①---|
口④②口 |②---|
口口口口 |③---|
口③①口 |④---|
14
口口口② |①---|
④口口④ |②---|
口③③① |③---|
口口口口 |④---|
15
②口口④ |①---|
口口口口 |②---|
①口口③ |③---|
口口口口 |④---|
16
口②口口 |①---|
③口口③ |②---|
④①口④ |③---|
口口口口 |④---|
17
口口口口 |①---|
口④②口 |②---|
口口口口 |③---|
口③①口 |④---|
18
③口口③ |①---|
①口口① |----|
口②②口 |②---|
口口口口 |③---|
19
口口口口 |①---|
②②④④ |②---|
口口口口 |③---|
①口口③ |④---|
20
口③③口 |①---|
②②口口 |②---|
口④④口 |③---|
口①口口 |④---|
21
口口口口 |①---|
④④②② |②---|
口口口口 |③---|
③口口① |④---|
22
④口口④ |①---|
口口②② |②---|
口③③口 |③---|
口口①口 |④---|
23
口②④口 |①---|
口口口口 |②---|
①口口③ |③---|
口口口口 |④---|
24
口口口口 |①---|
③②口③ |②---|
④口口④ |③---|
①口口口 |④---|
25
②口口② |①---|
③口口③ |----|
口①①口 |②---|
口口口口 |③---|
26
口口口口 |①---|
口口口口 |----|
①口口① |----|
口口口口 |----|
27
口口口口 |①---|
②③口口 |----|
口口口口 |②---|
①口口口 |③---|
28
口口口② |①---|
口口③口 |--②-|
口①口口 |----|
口口口口 |③---|
29
口口口口 |①---|
口口口口 |----|
口口①口 |----|
口口口口 |----|
30
口口口口 |----|
口口口① |----|
口口口口 |----|
口口口口 |①---|
31
口口口口 |①---|
口②口口 |----|
口③口① |②---|
口口口口 |③---|
32
口口②口 |①---|
口③口口 |--②-|
口口口口 |--③-|
口①口口 |----|
33
口口口口 |①---|
口口口口 |----|
口①①口 |----|
口口口口 |----|
34
口口口口 |----|
口口口口 |----|
口口口口 |----|
口口口口 |----|
35
口口②口 |①---|
口口③口 |----|
①口口口 |②---|
口口口口 |③---|
36
口口口口 |①---|
②口口口 |--②-|
口口①口 |----|
③口口口 |③---|
37
口口口口 |①---|
口口口① |--②-|
口口口② |----|
口口口③ |③---|
38
口④④口 |①---|
口③③口 |②---|
口②②口 |③---|
口①①口 |④---|
39
②口口口 |①---|
③口口① |----|
口口口口 |②---|
口口口口 |③---|
40
口口口口 |①---|
口③③口 |--②-|
①②②口 |----|
口口口口 |③---|
41
口口口口 |①---|
③③③③ |--②-|
②②②② |----|
①①①① |③---|
42
①①①① |①---|
口口口口 |----|
口口口口 |----|
口口口口 |----|
43
口口口口 |----|
口口口口 |----|
口②口口 |①---|
①口口口 |②---|
44
②②口口 |①---|
口口①口 |--②-|
③③口口 |----|
口口口口 |③---|
45
口口口口 |①---|
口口②② |--②-|
口口③③ |----|
口口①① |③---|
46
口②①口 |①---|
③口口口 |②---|
④口口口 |③---|
口口口口 |④---|
47
口口口口 |①---|
口口口④ |②---|
口口口③ |③---|
口①②口 |④---|
48
③口口③ |①---|
口②②口 |--②-|
口①①口 |----|
口口口口 |③---|
49
口①②口 |①---|
口口口③ |②---|
口口口④ |③---|
口口口口 |④---|
50
口口口口 |①---|
④口口口 |②---|
③口口口 |③---|
口②①口 |④---|
51
①口口① |①---|
口口口口 |--②-|
②口③② |----|
口口口口 |③---|
52
口口②② |①---|
口①口口 |--②-|
口口③③ |----|
口口口口 |③---|
53
口口口口 |①---|
②②口口 |--②-|
③③口口 |----|
①①口口 |③---|
54
口①②口 |①---|
口口口③ |②---|
口口口④ |③---|
口口口口 |④---|
55
口口口口 |①---|
④口口口 |②---|
③口口口 |③---|
口②①口 |④---|
56
③口口③ |①---|
口②②口 |--②-|
口①①口 |----|
口口口口 |③---|
57
口②①口 |①---|
③口口口 |②---|
④口口口 |③---|
口口口口 |④---|
58
口口口口 |①---|
口口口④ |②---|
口口口③ |③---|
口①②口 |④---|
59
①口口① |①---|
③口口口 |--②-|
②口口② |----|
口口口口 |③---|
60
口③口口 |①---|
口②口④ |②-③-|
口口口口 |----|
口①口口 |④---|
61
口口③口 |①---|
④口②口 |②-③-|
口口口口 |----|
口口①口 |④---|
62
口口口口 |①---|
口口口④ |②---|
口口口③ |③---|
口①②口 |④---|
63
口②①口 |①---|
③口口口 |②---|
口口口口 |③---|
口口口口 |----|
64
口口口口 |①---|
③口口③ |--②-|
口②②口 |----|
口①①口 |③---|
65
口口口口 |①---|
④口口口 |②---|
③口口口 |③---|
口②①口 |④---|
66
口①②口 |①---|
口口口③ |②---|
口口口④ |③---|
口口口口 |④---|
67
④口口④ |①---|
③口口③ |②---|
口②②口 |③---|
口①①口 |④---|
68
口口口口 |①---|
口②④口 |②---|
口口口口 |③---|
口①③口 |④---|
69
③口口③ |①---|
②口口口 |②---|
④口口④ |③---|
①口口口 |④---|
70
口口口口 |①---|
口④②口 |②---|
口口口口 |③---|
口③①口 |④---|
71
①口口① |①---|
②口口② |②---|
③口口③ |③---|
口口口口 |----|
72
口口口口 |①---|
③口口③ |--②-|
口②②口 |----|
口①①口 |③---|
73
口口口口 |①---|
口口口④ |②---|
口口口③ |③---|
口①②口 |④---|
74
口②①口 |①---|
③口口口 |②---|
④口口口 |③---|
口口口口 |④---|
75
口口口④ |①---|
口①①③ |②---|
口口口② |③---|
口口口口 |④---|
76
口①口④ |①---|
口②口口 |②---|
口口口③ |③---|
口口口口 |④---|
77
②口口口 |①---|
③口口③ |②---|
①口口口 |③---|
④口口④ |④---|
78
④口口口 |①---|
口口②口 |②---|
③口口口 |③---|
口口①口 |④---|
79
口①①口 |①---|
③口口③ |----|
口②②口 |②---|
口口口口 |③---|
80
③②①口 |----|
口口口口 |①---|
口口口口 |②---|
口口口口 |③---|
81
口口口口 |①---|
口口口口 |②---|
①②③④ |③---|
口口口口 |④---|
82
口口口口 |①---|
④③②① |②---|
口口口口 |③---|
口口口口 |④---|
83
③口口③ |①---|
口口口口 |----|
②口口② |②---|
口①①口 |③---|
84
口口口口 |----|
口①②③ |①---|
口口口口 |②---|
口口口口 |③---|
85
④③②① |①---|
口口口口 |②---|
口口口口 |③---|
口口口口 |④---|
86
口口口口 |①---|
口口口口 |②---|
②②④④ |③---|
口①③口 |④---|
87
口口口口 |----|
③②①口 |①---|
口口口口 |②---|
口口口口 |③---|
88
口口口口 |①---|
口口口口 |②---|
④③②① |③---|
口口口口 |④---|
89
①口口① |①---|
②口口② |②---|
口③③口 |③---|
④口口④ |④---|
90
④④④④ |①---|
②口口② |--②-|
口③③口 |--③-|
口①①口 |--④-|

不確定度: 0

最終更新:2016年04月18日 00:45