BEAT-NEW-WORLD
ビートまりお(COOL&CREATE)

ADVANCED

Level: 9
BPM: 190
Notes: 721

1
口口口口 |----|
口口口口 |----|
口口口口 |----|
口口口口 |----|
2
口口口口 |----|
口口口口 |----|
口口口口 |----|
口口口口 |----|
3
①④③② |①-②③|
口口口⑤ |④-⑤-|
⑥⑨⑧⑦ |⑥-⑦⑧|
口口口⑩ |⑨-⑩-|
4
①④③② |①-②③|
口口口⑤ |④-⑤-|
口口口口
口口口口

⑨口口口
口⑧⑦口
口口口⑥ |⑥-⑦-|
口口口口 |⑧-⑨-|
5
⑩口口口 |①-②③|
⑦⑧⑨⑥ |④-⑤-|
⑤口口口 |⑥-⑦⑧|
②③④① |⑨-⑩-|
6
口口口口 |①-②③|
口口口口 |④-⑤-|
口⑤⑥口 |⑥---|
②③④① |----|
7
口口口⑤ |①-②③|
①④③② |④-⑤-|
⑥⑨⑧⑦ |⑥-⑦⑧|
口口口⑩ |⑨-⑩-|
8
口口口⑤ |①-②③|
①④③② |④-⑤-|
⑨口口⑥ |⑥-⑦-|
口⑧⑦口 |⑧-⑨-|
9
口⑩⑩口 |①-②③|
②③④① |④-⑤-|
口⑤口口 |⑥-⑦⑧|
⑦⑧⑨⑥ |⑨-⑩-|
10
⑥⑥⑥⑥ |--①-|
④④②② |②-③-|
③⑤⑤① |④-⑤-|
口口口口 |⑥---|
11
⑨口口口 |①-②③|
⑥⑦⑧口 |④-⑤-|
⑤口口口 |--⑥⑦|
②③④① |⑧-⑨-|
12
⑨口口口 |①-②③|
口⑧⑦口 |④-⑤-|
⑤口口⑥ |⑥-⑦-|
②③④① |⑧-⑨-|
13
口⑪口⑩ |①-②③|
⑨⑧⑦⑥ |④-⑤-|
口口口⑤ |⑥⑦⑧⑨|
①④③② |⑩-⑪-|
14
⑧口口⑧ |①-②③|
口⑥⑥口 |④-⑤-|
口⑦⑦⑤ |⑥-⑦-|
①④③② |⑧---|
15
⑩口⑪口 |①-②③|
⑥⑦⑧⑨ |④-⑤-|
⑤口口口 |⑥⑦⑧⑨|
②③④① |⑩-⑪-|
16
⑨口口口 |①-②③|
口⑧⑦口 |④-⑤-|
⑤口口⑥ |⑥-⑦-|
②③④① |⑧-⑨-|
17
⑩⑪口口 |①-②③|
⑥⑨⑧⑦ |④-⑤-|
口口口⑤ |⑥-⑦⑧|
①④③② |⑨-⑩⑪|
18
⑥口①⑥ |①--②|
④⑤⑤④ |--③-|
③口口③ |④-⑤-|
口②②口 |⑥---|
19
⑩⑨⑪口 |①-②③|
口口⑧⑦ |④⑤-⑥|
⑤④⑥口 |-⑦⑧⑨|
①口③② |⑩-⑪-|
20
⑨口口口 |①-②③|
口⑧⑦口 |④-⑤-|
口口⑤⑥ |⑥-⑦-|
①④③② |⑧-⑨-|
21
⑩⑨⑪口 |①-②③|
口口⑧⑦ |④⑤-⑥|
⑤④⑥口 |-⑦⑧⑨|
①口③② |⑩-⑪-|
22
⑧⑧⑧⑧ |①-②③|
口口⑦⑦ |④-⑤-|
⑥⑥口⑤ |⑥-⑦-|
①④③② |⑧---|
23
口⑪⑨⑩ |①-②③|
⑦⑧口口 |④⑤-⑥|
口⑥④⑤ |-⑦⑧⑨|
②③口① |⑩-⑪-|
24
口口口⑨ |①-②③|
口⑦⑧口 |④-⑤-|
⑥⑤口口 |⑥-⑦-|
②③④① |⑧-⑨-|
25
②②口口 |①--②|
③④⑥③ |--③-|
口口①① |④-⑤-|
口⑤⑦口 |⑥-⑦-|
26
口口口口 |①---|
口口口口 |----|
①口口① |----|
①口口① |----|
27
口口②口 |①---|
④口口口 |----|
③①口口 |②---|
口口口口 |③-④-|
28
②口口口 |①---|
口口口③ |--②-|
口口①④ |--③-|
口口口⑤ |④-⑤-|
29
口口口口 |①---|
口口口口 |----|
口口口口 |----|
口①口口 |----|
30
口口口口 |----|
口口①口 |----|
口口②口 |----|
口口口口 |①-②-|
31
口②口口 |①---|
口口口③ |----|
口口口④ |②---|
口口①口 |③-④-|
32
口口口② |①---|
口③口口 |--②-|
口口口④ |--③-|
口①口口 |--④-|
33
口口口口 |①---|
口口口口 |----|
口口口口 |----|
口口①口 |----|
34
口口口口 |----|
口口口口 |----|
口口口口 |----|
口口口口 |----|
35
口口口口 |①---|
①②①口 |--②③|
口③⑥⑥ |④--⑤|
口④⑤⑤ |--⑥-|
36
口口口口 |①---|
①②①② |--②-|
口③③口 |----|
口口口口 |③---|
37
口口口口 |①---|
口口口口 |--②-|
口③③口 |----|
①②①② |③---|
38
口②①口 |①---|
②口口① |②---|
③口口④ |③---|
口③④口 |④---|
39
口②口口 |①---|
③①①口 |----|
口④口口 |②--③|
口口口口 |--④-|
40
口口口口 |①---|
口口②② |--②-|
③③口口 |----|
口口①① |③---|
41
②②①① |①---|
口口口口 |--②-|
③③③③ |----|
①①②② |③---|
42
口口口口 |①---|
①①①① |----|
口口口口 |----|
口口口口 |----|
43
②口口① |----|
口口口口 |----|
口口口口 |①---|
①口口② |②---|
44
口②②口 |①---|
④①①④ |--②-|
口①①口 |--③-|
⑤③③⑤ |④-⑤-|
45
②③③② |①---|
口⑤⑤口 |--②-|
④①①④ |--③-|
口口口口 |④-⑤-|
46
口④④口 |①---|
①口口① |②---|
口③③口 |③-④-|
⑤②②⑤ |--⑤-|
47
口口口口 |----|
口口口口 |----|
口口口口 |----|
口口口口 |----|
48
口口口③ |①---|
④②①⑤ |--②-|
⑤①②④ |--③-|
③口口口 |④-⑤-|
49
①③②④ |①---|
口口口口 |②---|
口口口口 |③---|
④②③① |④---|
50
口口口口 |①---|
①口口① |----|
口口口口
口口口口

口口口口
④口口④
口③③口 |②--③|
口②②口 |--④-|
51
①④④① |①---|
口口口口 |--②-|
②⑤⑤② |--③-|
口③③口 |④-⑤-|
52
②口口② |①---|
口口口口 |--②-|
口口口口
①口口①

口口口口
④口口④
口口口口 |--③-|
⑤③③⑤ |④-⑤-|
53
②④④② |①---|
口口口口 |--②-|
③①①③ |--③-|
⑤口口⑤ |④-⑤-|
54
口④④口 |①---|
①口口① |②---|
口③③口 |③-④-|
⑤②②⑤ |--⑤-|
55
口口口口 |----|
口口口口 |----|
口口口口 |----|
口口口口 |----|
56
口口口口 |①---|
口①②① |--②③|
⑥⑥③口 |④--⑤|
⑤⑤④口 |--⑥-|
57
②④②④ |①---|
③①③① |②---|
口口口口 |③---|
口口口口 |④---|
58
口④口④ |①---|
③口③口 |----|
口②口② |②--③|
①口①口 |--④-|
59
①口①口 |①---|
⑤②口② |--②-|
②④②口 |--③-|
口③口口 |④-⑤-|
60
口口①口 |①-②-|
口口②⑦ |③-④-|
口口⑥③ |--⑤-|
口口⑤④ |⑥-⑦-|
61
口①口口 |①-②-|
口②口⑦ |③-④-|
③口⑥口 |--⑤-|
④口⑤口 |⑥-⑦-|
62
口①④口 |①-②-|
口②⑦口 |③-④-|
口③⑥口 |--⑤-|
口口⑤口 |⑥-⑦-|
63
①①③③ |--①-|
口口口口 |②-③-|
口口口口 |④---|
②②④④ |----|
64
口口口口 |①---|
①②①口 |--②③|
口③⑥⑥ |④--⑤|
口④⑤⑤ |--⑥-|
65
③④③④ |①---|
①②①② |②---|
口口口口 |③---|
口口口口 |④---|
66
口口口口 |①---|
④②④② |②---|
口口口口 |③---|
①③①③ |④---|
67
③②③② |①---|
④口口④ |②---|
④①①④ |③---|
口口口口 |④---|
68
⑥⑨⑧⑦ |①-②③|
口口口⑩ |④-⑤-|
口口⑤口 |⑥-⑦⑧|
①④③② |⑨-⑩-|
69
⑨口口口 |①-②③|
口⑧⑦口 |④-⑤-|
口口⑤⑥ |⑥-⑦-|
①④③② |⑧-⑨-|
70
口口⑪⑩ |①-②③|
⑦⑧⑨⑥ |④-⑤-|
口⑤口口 |⑥-⑦⑧|
②③④① |⑨-⑩⑪|
71
口①口口 |①-②-|
⑤口口⑤ |③-④-|
②④④② |⑤---|
口③③口 |----|
72
口①②① |①---|
口⑥③⑥ |--②③|
口⑤④⑤ |④--⑤|
口口口口 |--⑥-|
73
②①②① |①---|
口④口④ |②---|
口口口口 |③---|
③口③口 |④---|
74
口口口口 |①---|
①口①口 |----|
口口口口
口①口①

口口口口
④口④口
口③口③ |②--③|
②口②口 |--④-|
75
①①①① |①---|
口②口② |②---|
③口③口 |③---|
口④口④ |④---|
76
⑥口口③ |①-②-|
⑤口口② |③-④-|
④⑧口① |⑤-⑥-|
口⑦口口 |⑦-⑧-|
77
口口④③ |①-②-|
口①口口 |③-④-|
口口口口
口口②口

⑥⑤口口
口⑧⑦口
口口口口 |⑤-⑥-|
口口口口 |⑦-⑧-|
78
口口口口 |①-②-|
③口口⑥ |③-④-|
②⑧口⑤ |⑤-⑥-|
①⑦口④ |⑦-⑧-|
79
①②②① |-①-②|
⑤③③⑤ |③-④-|
④⑥⑥④ |⑤---|
口口口口 |⑥---|
80
口口口口 |--①-|
口⑦口口 |②-③-|
口口⑥⑤ |④-⑤-|
④③②① |⑥-⑦-|
81
⑧⑦⑥⑤ |①-②-|
①口③② |③-④-|
口④口口 |⑤-⑥-|
口口口口 |⑦-⑧-|
82
口口口口 |①-②-|
⑧⑦⑥⑤ |③-④-|
④③②① |⑤-⑥-|
口口口口 |⑦-⑧-|
83
⑤①①⑤ |①--②|
口口口口 |--③-|
④②②④ |④---|
③口口③ |⑤---|
84
口口口口 |--①-|
③②①口 |②-③-|
⑦⑥⑤④ |④-⑤-|
口口口口 |⑥-⑦-|
85
口口②① |①-②-|
⑥⑤④③ |③-④-|
⑧⑦口口 |⑤-⑥-|
口口口口 |⑦-⑧-|
86
口口口口 |--①-|
⑥⑤④口 |②-③-|
口口口口 |--④-|
③②①口 |⑤-⑥-|
87
⑦⑥⑤④ |--①-|
口口口口 |②-③-|
③②①口 |④-⑤-|
口口口口 |⑥-⑦-|
88
口口口口 |①-②-|
⑤⑥⑦⑧ |③-④-|
口口口口 |⑤-⑥-|
①②③④ |⑦-⑧-|
89
③口口③ |--①-|
口⑤⑤口 |-②--|
②④④② |③-④-|
口①①口 |⑤---|
90
⑦④④⑦ |①-②-|
②⑦⑦② |③-④-|
③⑤⑤③ |--⑤-|
⑥①①⑥ |⑥-⑦-|

不確定度: 0

最終更新:2016年04月18日 00:45