妖隠し -あやかしかくし-
DJ TOTTO feat.3L

BASIC

Level: 4
BPM: 85
Notes: 417

實際BPM: 170
1
口口口口 |----|
口口口口 |----|
口口口口 |----|
口口口口
2
口口口口 |----|
口口口口 |----|
口口口口 |----|
口口口口
3
口口口口 |①---|
口口口口 |----|
口口口口 |----|
口①①口
4
口口口口 |----|
口口口口 |----|
口口口口 |----|
口口口口
5
口口口口 |①---|
口①①口 |----|
口口口口 |----|
口口口口
6
口①①口 |①---|
口口口口 |----|
口口口口 |----|
口口口口
7
口口口口 |①---|
口③口口 |②---|
口②口口 |③---|
口①口口
8
口口口口 |①---|
口口③口 |②---|
口口②口 |③---|
口口①口
9
口口口口 |①---|
③口口口 |②---|
②口口口 |③---|
①口口口
10
口口口口 |①---|
口口口③ |②---|
口口口② |③---|
口口口①
11
口口口口 |①---|
口③口口 |②---|
口②口口 |③---|
口①口口
12
口口口口 |①---|
口口③口 |②---|
口口②口 |③---|
口口①口
13
口口口口 |①---|
口③口口 |②---|
口②口口 |③---|
口①口口
14
口口③口 |①---|
口口②口 |②---|
口口①口 |③---|
口口口口
15
口③口口 |①---|
口②口口 |②---|
口口口口 |③---|
口①口口
16
口口③口 |①---|
口口②口 |②---|
口口口口 |③---|
口口①口
17
③口口口 |①---|
②口口口 |②---|
口口口口 |③---|
①口口口
18
口口口③ |①---|
口口口② |②---|
口口口口 |③---|
口口口①
19
口③口口 |①---|
口②口口 |②---|
口口口口 |③---|
口①口口
20
口口③口 |①---|
口口②口 |②---|
口口口口 |③---|
口口①口
21
口③口口 |①---|
口②口口 |②---|
口口口口 |③---|
口①口口
22
口口口口 |①---|
口③③口 |②---|
口②②口 |③---|
口①①口
23
口口口口 |①---|
口口口口 |----|
口口口口 |----|
口①①口
24
口口口口 |①---|
口口口口 |②---|
口①②③ |③---|
口口口口
25
口口口口 |①---|
①②③口 |②---|
口口口口 |③---|
口口口口
26
口口口口 |①---|
口口口① |②---|
口②③口 |③---|
口口口口
27
口口口口 |①---|
口口口口 |----|
口口口口 |----|
口①①口
28
口口口口 |①---|
口③②① |②---|
口口口口 |③---|
口口口口
29
口口口口 |①---|
①口口口 |----|
口口口口 |----|
口口口口
30
口口口口 |----|
口口口口 |----|
口口口口 |----|
口口口口
31
口口口口 |①---|
口口口口 |----|
口口口口 |----|
口①①口
32
口③口口 |①---|
口口口口 |②---|
口①②口 |③---|
口口口口
33
口口①口 |①---|
口②②口 |②---|
口③③口 |③---|
口口口口
34
口口口口 |①---|
口②口口 |----|
口口口口 |②---|
口①①口
35
口口口口 |①---|
口口①口 |----|
口口②口 |②---|
口口口口
36
口口口口 |①---|
口口口口 |②---|
口③口口 |③---|
口①②口
37
口口口口 |①---|
口口①口 |----|
口口口口 |----|
口口口口
38
口①口口 |①---|
口②口口 |②---|
口口③口 |③---|
口口口口
39
①②③口 |①---|
口口口口 |②---|
口口口口 |③---|
口口口口
40
口口口口 |①---|
口口口① |②---|
口②③口 |③---|
口口口口
41
口口口口 |①---|
口口口口 |②---|
口口口口 |③---|
①②③口
42
口口口口 |①---|
口口口口 |②---|
口②③口 |③---|
口口口①
43
口口口口 |①---|
③口口口 |②---|
②口口口 |③---|
①口口口
44
口口口口 |①---|
口③口口 |②---|
口②口口 |③---|
口①口口
45
口口口口 |①---|
口口③口 |②---|
口口②口 |③---|
口口①口
46
口口口口 |①---|
口口口③ |②---|
口口口② |③---|
口口口①
47
①②③口 |①---|
口口口口 |②---|
口口口口 |③---|
口口口口
48
口口口口 |①---|
口口口① |②---|
口②③口 |③---|
口口口口
49
口口口口 |①---|
口口口口 |②---|
口口口口 |③---|
①②③口
50
口口口口 |①---|
口口口口 |②---|
口②③口 |③---|
口口口①
51
口口口口 |①---|
③口口口 |②---|
②口口口 |③---|
①①口口
52
口③口口 |①---|
口②口口 |②---|
口①①口 |③---|
口口口口
53
口口①① |①---|
口口②口 |②---|
口口③口 |③---|
口口口口
54
口①口口 |①---|
口②口口 |②---|
口③口口 |③---|
口口口口
55
口②②口 |①---|
③口口③ |②---|
口口口口 |③---|
口①①口
56
口口口口 |①---|
口口口口 |②---|
①口口① |③---|
②③③②
57
口口口口 |①---|
②③③② |②---|
①口口① |③---|
口口口口
58
③口口③ |①---|
②口口② |②---|
①口口① |③---|
口口口口
59
口口口口 |①---|
口③②口 |②---|
口口口口 |③---|
口①①口
60
口口口口 |①---|
口③②口 |②---|
口口口口 |③---|
口①①口
61
口口口口 |①---|
口③②口 |②---|
口①①口 |③---|
口口口口
62
口口口口 |①---|
口③②口 |②---|
口口口口 |③---|
口①①口
63
①口口① |①---|
②口口② |②---|
③口口③ |③---|
口口口口
64
口口口口 |①---|
口③③口 |②---|
口②②口 |③---|
口①①口
65
①口口① |①---|
②③③② |②---|
口口口口 |③---|
口口口口
66
口口口口 |①---|
口口口口 |②---|
口①①口 |③---|
③②②③
67
口口口口 |①---|
口③②口 |②---|
口①①口 |③---|
口口口口
68
口口口口 |①---|
口③②口 |②---|
口口口口 |③---|
口①①口
69
口口口口 |①---|
口③②口 |②---|
口①①口 |③---|
口口口口
70
口口口口 |①---|
口③②口 |②---|
口口口口 |③---|
口①①口
71
①口口① |①---|
②口口② |②---|
③口口③ |③---|
口口口口
72
口口口口 |①---|
口③③口 |②---|
口②②口 |③---|
口①①口
73
①口口① |①---|
②口口② |②---|
③③口口 |③---|
口口口口
74
口口口口 |①---|
③口口③ |②---|
口口①① |③---|
口②②口
75
①②③① |①---|
口口口口 |②---|
口口口口 |③---|
口口口口
76
口口口口 |①---|
口③口口 |②---|
口②口口 |③---|
口①口口
77
口口口口 |①---|
口口③口 |②---|
口口②口 |③---|
口口①口
78
口口口口 |①---|
口③口口 |②---|
口②口口 |③---|
口①口口
79
口口口口 |①---|
口口③口 |②---|
口口②口 |③---|
口口①①
80
口口口口 |①---|
口③口口 |②---|
口②口口 |③---|
①①口口
81
口口口口 |①---|
口口③口 |②---|
口口②口 |③---|
口口①口
82
口口口口 |①---|
口③③口 |②---|
口②口口 |③---|
口①口口
83
口①①口 |①---|
口口口② |②---|
口口口③ |③---|
口口口口
84
口口口口 |①---|
口口③口 |②---|
口口②口 |③---|
口口①口
85
口①口口 |①---|
口②口口 |②---|
口③口口 |③---|
口口口口
86
口口口口 |①---|
③口口口 |②---|
②口口口 |③---|
①口口口
87
①口口口 |①---|
口②口口 |②---|
口口③口 |③---|
口口口口
88
口口口① |①---|
口口②口 |②---|
口③口口 |③---|
口口口口
89
口口口口 |①---|
口口口口 |②---|
③口口③ |③---|
②①①②
90
口③③口 |①---|
口②②口 |②---|
口①①口 |③---|
口口口口
91
口口口口 |①---|
口口口口 |----|
口①①口 |----|
口口口口
92
口口口口 |①---|
①②③口 |②---|
口口口口 |③---|
口口口口
93
口③②口 |①---|
口口口口 |②---|
口①①口 |③---|
口口口口
94
口口口口 |①---|
口③②口 |②---|
口口口口 |③---|
口①①口
95
①口口① |①---|
②口口② |②---|
③口口③ |③---|
口口口口
96
口口口口 |①---|
口③③口 |②---|
口②②口 |③---|
口①①口
97
①口口① |①---|
②③③② |②---|
口口口口 |③---|
口口口口
98
口口口口 |①---|
口口口口 |②---|
口①①口 |③---|
③②②③
99
口口口口 |①---|
口③②口 |②---|
口①①口 |③---|
口口口口
100
口口口口 |①---|
口③②口 |②---|
口口口口 |③---|
口①①口
101
口③②口 |①---|
口口口口 |②---|
口①①口 |③---|
口口口口
102
口口口口 |①---|
口口口口 |②---|
口③②口 |③---|
口①①口
103
①口口① |①---|
②口口② |②---|
③口口③ |③---|
口口口口
104
口口口口 |①---|
口③③口 |②---|
口②②口 |③---|
口①①口
105
①口口① |①---|
②口口② |②---|
③③口口 |③---|
口口口口
106
口口口口 |①---|
③口口③ |②---|
口口①① |③---|
口②②口
107
①②③① |①---|
口口口口 |②---|
口口口口 |③---|
口口口口
108
口口口口 |①---|
口③口① |②---|
口口②口 |③---|
口口口口
109
口口口口 |①---|
口口口口 |②---|
①②③口 |③---|
口口口口
110
口口②口 |①---|
口③口① |②---|
口口口口 |③---|
口口口口
111
口口口口 |①---|
口口口口 |②---|
口口口口 |③---|
口③②①
112
口口口口 |①---|
口②口口 |②---|
①口③口 |③---|
口口口口
113
口口口口 |①---|
①②③口 |②---|
口口口口 |③---|
口口口口
114
口口口口 |①---|
口③③口 |②---|
口②②口 |③---|
口①①口
115
口口口口 |①---|
口口口口 |----|
①口口① |----|
口口口口

不確定度: 0

最終更新:2016年04月18日 01:17