妖隠し -あやかしかくし-
DJ TOTTO feat.3L

ADVANCED

Level: 6
BPM: 85
Notes: 474

實際BPM: 170
1
口口口口 |----|
口口口口 |----|
口口口口 |----|
口口口口
2
口口口口 |----|
口口口口 |----|
口口口口 |----|
口口口口
3
口口口口 |①---|
口口口口 |----|
口口口口 |----|
口①①口
4
口口口口 |①---|
口口口口 |----|
口①①口 |----|
口口口口
5
口口口口 |①---|
口口口口 |----|
口口口口 |----|
口①①口
6
③口口③ |①---|
②口口② |②---|
①口口① |③---|
口口口口
7
③口口口 |①---|
②口口口 |②---|
口口口口 |③---|
①口口口
8
口口②口 |①---|
口口③口 |②---|
口口①口 |③---|
口口口口
9
口③口口 |①---|
口②口口 |②---|
口口口口 |③---|
口①口口
10
口口口① |①---|
口口口② |②---|
口口口③ |③---|
口口口口
11
③口口口 |①---|
②口口口 |②---|
口口口口 |③---|
①口口口
12
口口①口 |①---|
口口③口 |②---|
口口②口 |③---|
口口口口
13
口③口口 |①---|
口②口口 |②---|
口口口口 |③---|
口①口口
14
口口口口 |①---|
口③③口 |②---|
口②①口 |③---|
口口口口
15
③口口口 |①---|
②口口口 |②---|
口口口口 |③---|
①口口口
16
口口口① |①---|
口口②口 |②---|
口口口③ |③---|
口口口口
17
③口口口 |①---|
②口口口 |②---|
口口口口 |③---|
①口口口
18
口口口① |①---|
口口口③ |②---|
口口②口 |③---|
口口口口
19
③口口口 |①---|
②口口口 |②---|
口口口口 |③---|
①口口口
20
口口口① |①---|
口口口③ |②---|
口口口口 |③---|
口口口②
21
③口③口 |①---|
②口②口 |②---|
口口口口 |③---|
①口①口
22
口口口口 |①-②-|
口④⑤⑥ |③-④-|
①②③口 |⑤-⑥-|
口口口口
23
口口口口 |①---|
口②口口 |----|
口口口口 |②---|
口①①口
24
口口口口 |①---|
口口③口 |②---|
口口②口 |③---|
口口①口
25
口①口口 |①---|
口②口口 |②---|
口③口口 |③---|
口口口口
26
口口口口 |①---|
②口③口 |②---|
口口口口 |③---|
口①口口
27
口口口口 |①---|
口②口口 |----|
口口口口 |②---|
口口①口
28
口口口口 |①---|
口口口① |②---|
口③②口 |③---|
口口口口
29
口口口口 |①---|
口口口口 |----|
口口口口 |----|
①口口口
30
口口口口 |----|
口口口口 |----|
口口口口 |----|
口口口口
31
口口口口 |①---|
口②口口 |----|
口口口口 |②---|
口①①口
32
口③口口 |①---|
口口口口 |②---|
口口②口 |③---|
口口①口
33
口口口口 |①---|
口①口口 |②---|
口②②口 |③---|
口③③口
34
口口口口 |①---|
口①①口 |②---|
口口口口 |③---|
口口③②
35
口口口口 |①---|
口②口口 |----|
口口口口 |②---|
口①口口
36
口口口口 |①---|
口口③① |②---|
口口②口 |③---|
口口口口
37
口口口口 |①---|
②口口口 |----|
口口口口 |②---|
口①口口
38
口口口口 |①---|
口口①口 |②---|
口口②口 |③---|
口③③口
39
口口口口 |①---|
口②③口 |②---|
①口口① |③---|
口口口口
40
口口口口 |①---|
口②③口 |②---|
口口口口 |③---|
①口口①
41
口②③口 |①---|
口口口口 |②---|
口口口口 |③---|
①口口①
42
口口口口 |①---|
口②③口 |②---|
口口口口 |③---|
①口口①
43
口口口口 |①---|
口③口口 |②---|
口②口口 |③---|
①①口口
44
口口口口 |①---|
口口③口 |②---|
口口②口 |③---|
口口①①
45
口口口口 |①---|
口③口口 |②---|
口②口口 |③---|
①①口口
46
口口口口 |①---|
口口③口 |②---|
口口②口 |③---|
口口①①
47
口口口口 |①---|
口②③口 |②---|
①口口① |③---|
口口口口
48
口口口口 |①---|
口②③口 |②---|
口口口口 |③---|
①口口①
49
口②③口 |①---|
口口口口 |②---|
口口口口 |③---|
①口口①
50
口口口口 |①---|
口②③口 |②---|
口口口口 |③---|
①口口①
51
口口口口 |①---|
口口③口 |②---|
口口②口 |③---|
①①口口
52
口口口口 |①---|
口③口口 |②---|
口②口口 |③---|
口口①①
53
口口口口 |①---|
口口③口 |②---|
口口②口 |③---|
①①口口
54
口①①口 |①---|
②口口② |②---|
口③③口 |③---|
口口口口
55
口②②口 |①---|
口③③口 |②---|
口口口口 |③---|
①口口①
56
口口口口 |①---|
口口口口 |②---|
③①①③ |③---|
口②②口
57
口①①口 |①---|
③口口③ |②---|
口口口口 |③---|
口②②口
58
口⑥⑤口 |①-②-|
口④③口 |③-④-|
口②①口 |⑤-⑥-|
口口口口
59
②口口② |①---|
口③③口 |②---|
口口口口 |③---|
①口口①
60
口口口口 |①---|
口口口口 |②---|
口③②口 |③---|
口①①口
61
②口口② |①---|
口③③口 |②---|
口口口口 |③---|
①口口①
62
口①①口 |①---|
口口口口 |②---|
口③②口 |③---|
口口口口
63
口①①口 |①---|
口口口口 |②-③-|
口⑤④口 |④-⑤-|
口③②口
64
口①①口 |①---|
口口口口 |②-③-|
口⑤④口 |④-⑤-|
口③②口
65
口①①口 |①---|
口口口口 |②-③-|
口⑤④口 |④-⑤-|
口③②口
66
口①①口 |①---|
②口口② |②---|
③口口③ |③---|
口口口口
67
②口口② |①---|
口③③口 |②---|
口口口口 |③---|
①口口①
68
口口口口 |①---|
口口口口 |②---|
口③②口 |③---|
口①①口
69
②口口② |①---|
口③③口 |②---|
口口口口 |③---|
①口口①
70
口①①口 |①---|
口口口口 |②---|
口③②口 |③---|
口口口口
71
口①①口 |①---|
口口口口 |②-③-|
口⑤④口 |④-⑤-|
口③②口
72
口①①口 |①---|
口口口口 |②-③-|
口⑤④口 |④-⑤-|
口③②口
73
口①①口 |①---|
口口②口 |②---|
口口口口 |③---|
口③③口
74
口②②口 |①---|
①③③① |②---|
口口口口 |③---|
口口口口
75
③口口口 |①---|
②口口口 |②---|
口口口口 |③---|
口①①口
76
口③口口 |①---|
口②口口 |②---|
口口口口 |③---|
口①口口
77
口口③口 |①---|
口口②口 |②---|
口口口口 |③---|
口口①口
78
口③口口 |①---|
口②口口 |②---|
口口口口 |③---|
口①口口
79
口口③口 |①---|
口口②口 |②---|
口口口口 |③---|
口口①①
80
口③口口 |①---|
口②口口 |②---|
口口口口 |③---|
①①口口
81
口口③口 |①---|
口口②口 |②---|
口口口① |③---|
口口①口
82
口③口口 |①---|
口②口口 |②---|
①口口口 |③---|
口①口口
83
口③口口 |①---|
口②口口 |②---|
①口口① |③---|
口①口口
84
口口③口 |①---|
口口②口 |②---|
①口口① |③---|
口口①口
85
口③口口 |①---|
口②口① |②---|
口口口① |③---|
口①口口
86
口口③口 |①---|
①口②口 |②---|
①口口口 |③---|
口口①口
87
口③口① |①---|
口②口口 |②---|
口口口① |③---|
口①口口
88
①口③口 |①---|
口口②口 |②---|
①口口口 |③---|
口口①口
89
③③口口 |①---|
②②口口 |②---|
口口口口 |③---|
①①口口
90
口口③③ |①---|
口口②② |②---|
口口口口 |③---|
口口①①
91
口口口口 |①---|
口口口口 |----|
①①①① |----|
口口口口
92
口口口口 |①---|
①②③口 |②---|
①②③口 |③---|
口口口口
93
②口口② |①---|
口③③口 |②---|
口口口口 |③---|
①口口①
94
口①①口 |①---|
口口口口 |②---|
口③②口 |③---|
口口口口
95
口①①口 |①---|
口口口口 |②-③-|
口⑤④口 |④-⑤-|
口③②口
96
①口口① |①---|
口口口口 |②-③-|
口⑤④口 |④-⑤-|
口③②口
97
口①①口 |①---|
口口口口 |②-③-|
口⑤④口 |④-⑤-|
口③②口
98
①口口① |①---|
②口口② |②---|
③口口③ |③---|
口口口口
99
②口口② |①---|
口③③口 |②---|
口口口口 |③---|
①口口①
100
口口口口 |①---|
口口口口 |②---|
口③②口 |③---|
口①①口
101
②口口② |①---|
口③③口 |②---|
口口口口 |③---|
①口口①
102
口①①口 |①---|
口口口口 |②---|
口③②口 |③---|
口口口口
103
口①①口 |①---|
口口口口 |②-③-|
口⑤④口 |④-⑤-|
口③②口
104
①口口① |①---|
口口口口 |②-③-|
口⑤④口 |④-⑤-|
口③②口
105
口①①口 |①---|
口口②口 |②---|
口口口口 |③---|
口③③口
106
口②②口 |①---|
①③③① |②---|
口口口口 |③---|
口口口口
107
③口口口 |①---|
②口口口 |②---|
口口口口 |③---|
口①①口
108
口口③口 |①---|
口口②口 |②---|
口口口口 |③---|
口口①口
109
口①口口 |①---|
口口口口 |②---|
口②口口 |③---|
口③口口
110
口口①口 |①---|
口口口口 |②---|
口口②口 |③---|
口口③口
111
③口口口 |①---|
口②口口 |②---|
①口口口 |③---|
口口口口
112
口口口③ |①---|
口口②口 |②---|
口口口① |③---|
口口口口
113
口③口口 |①---|
②口口口 |②---|
口口口口 |③---|
口①口口
114
口口口口 |①-②-|
口④⑤⑥ |③-④-|
①②③口 |⑤-⑥-|
口口口口

不確定度: 0

最終更新:2016年04月18日 01:16