きらきらタイム☆
さわわ

BASIC

Level: 4
BPM: 202
Notes: 365

1
口口口口 |----|
口口口口 |----|
口口口口 |----|
口口口口 |----|
2
口口口口 |----|
口口口口 |----|
口口口口 |----|
口口口口 |----|
3
①①口口 |①---|
口口口口 |----|
口口口口 |----|
口口口口 |----|
4
口口①① |①---|
口口口口 |----|
口口口口 |----|
口口口口 |----|
5
①①口口 |①---|
口口口口 |----|
口口口口 |----|
口口口口 |----|
6
口口①① |①---|
口口口口 |----|
口口口口 |----|
口口口口 |----|
7
口口口口 |①---|
①②口口 |----|
口口口口 |②---|
口口口口 |----|
8
口口口口 |①---|
口口①② |----|
口口口口 |②---|
口口口口 |----|
9
口口口口 |①---|
口口口口 |----|
口口②① |②---|
口口口口 |----|
10
口口口口 |①---|
口③③口 |----|
口①口口 |②---|
口②②口 |③---|
11
口②口① |①---|
口④口③ |②---|
口口口口 |③---|
口口口口 |④---|
12
口口口口 |①---|
口口口口 |②---|
口②口① |③---|
口④口③ |④---|
13
口口口口 |①---|
口口口口 |②---|
④口③口 |③---|
②口①口 |④---|
14
②②①① |①---|
④④③③ |②---|
口口口口 |③---|
口口口口 |④---|
15
口②口① |①---|
口④口③ |②---|
口口口口 |③---|
口口口口 |④---|
16
口口口口 |①---|
口口口口 |②---|
口②口① |③---|
口④口③ |④---|
17
口口口口 |①---|
口④④口 |②---|
口口③口 |③---|
②口①口 |--④-|
18
口口口口 |----|
口口口口 |----|
口①①口 |①---|
口口口口 |----|
19
口口口口 |①---|
口口③③ |②---|
口口口② |③---|
口口口① |----|
20
口口口口 |①---|
③③口口 |②---|
②口口口 |③---|
①口口口 |----|
21
口口③③ |①---|
口口②口 |②---|
口口①口 |③---|
口口口口 |----|
22
③③口口 |①---|
口②口口 |②---|
口①口口 |③---|
口口口口 |----|
23
口口口口 |①---|
口口口口 |②---|
口③④口 |③---|
口①②口 |④---|
24
口口口口 |①---|
①口口① |----|
②口口② |②---|
口口口口 |----|
25
口口口口 |①---|
口口口口 |----|
口口口口 |②---|
①②②① |----|
26
口口口口 |①---|
①①①① |----|
口口口口 |----|
口口口口 |----|
27
口口口口 |①---|
口口③③ |②---|
口口口② |③---|
口口口① |----|
28
口口口口 |①---|
③③口口 |②---|
②口口口 |③---|
①口口口 |----|
29
口口③③ |①---|
口口②口 |②---|
口口①口 |③---|
口口口口 |----|
30
①①口口 |①---|
②②口口 |----|
口口口口 |②---|
口口口口 |----|
31
口口口口 |①---|
口口口口 |②---|
口③④口 |③---|
口①②口 |④---|
32
②口口② |①---|
①口口① |----|
口口口口 |②---|
口口口口 |----|
33
口口口口 |①---|
口①①口 |----|
口②②口 |②---|
口口口口 |----|
34
口口口口 |①---|
口口口口 |----|
口口口口 |----|
口①①口 |----|
35
①①口口 |①---|
口口口口 |----|
口口口口 |----|
口口口口 |----|
36
口口①① |①---|
口口口口 |----|
口口口口 |----|
口口口口 |----|
37
①①口口 |①---|
口口口口 |----|
口口口口 |----|
口口口口 |----|
38
口口①① |①---|
口口口口 |----|
口口口口 |----|
口口口口 |----|
39
口口口口 |①---|
①②口口 |----|
口口口口 |②---|
口口口口 |----|
40
口口口口 |①---|
口口①② |----|
口口口口 |②---|
口口口口 |----|
41
口口口口 |①---|
口口口口 |----|
口口②① |②---|
口口口口 |----|
42
口口口口 |①---|
口③③口 |----|
口①口口 |②---|
口②②口 |③---|
43
①口口口 |①---|
口口口口 |----|
口口口口 |----|
口口口口 |----|
44
口口口① |①---|
口口口口 |----|
口口口口 |----|
口口口口 |----|
45
口口口口 |①---|
口口口口 |----|
口口口口 |----|
①口口口 |----|
46
②②①① |①---|
④④③③ |②---|
口口口口 |③---|
口口口口 |④---|
47
口口口口 |①---|
口口口口 |----|
口口②① |②---|
口口口口 |----|
48
口口口口 |①---|
口口口口 |----|
②①口口 |②---|
口口口口 |----|
49
口口口口 |①---|
①②口口 |----|
口口口口 |②---|
口口口口 |----|
50
口③③口 |①---|
口口①口 |----|
口②②口 |②---|
口口口口 |③---|
51
②口口① |①---|
④口口③ |②---|
口口口口 |③---|
口口口口 |④---|
52
口口口口 |①---|
口口口口 |②---|
②口口① |③---|
④口口③ |④---|
53
口口口口 |①---|
口口口口 |②---|
口④③口 |③---|
口②①口 |④---|
54
②②①① |①---|
④④③③ |②---|
口口口口 |③---|
口口口口 |④---|
55
②口口① |①---|
④口口③ |②---|
口口口口 |③---|
口口口口 |④---|
56
口口口口 |①---|
口口口口 |②---|
②口口① |③---|
④口口③ |④---|
57
④口口④ |①---|
口③③口 |②---|
口②②口 |③---|
口①①口 |--④-|
58
口口口口 |----|
①口口① |----|
口口口口 |①---|
口口口口 |----|
59
口口口口 |①---|
口口①口 |----|
口口口口 |----|
口口口口 |----|
60
口口口口 |①---|
口口口口 |----|
口口①口 |----|
口口口口 |----|
61
口口口口 |①---|
口口口口 |----|
口①口口 |----|
口口口口 |----|
62
口口口口 |①---|
口①口口 |----|
口口口口 |----|
口口口口 |----|
63
口口口口 |①---|
口口②① |----|
口口口口 |②---|
口口口口 |----|
64
口口口口 |①---|
②①口口 |----|
口口口口 |②---|
口口口口 |----|
65
口口口口 |①---|
口②②口 |----|
口①①口 |②---|
口口口口 |----|
66
口①①口 |①---|
口口口口 |----|
口口口口 |----|
口口口口 |----|
67
口口口口 |①---|
口口口口 |----|
②②口口 |②---|
①①口口 |----|
68
口口口口 |①---|
口口口口 |----|
口口②② |②---|
口口①① |----|
69
②②口口 |①---|
①①口口 |----|
口口口口 |②---|
口口口口 |----|
70
口口②② |①---|
口口①① |----|
口口口口 |②---|
口口口口 |----|
71
口口口口 |①---|
②②口口 |----|
①①口口 |②---|
口口口口 |----|
72
口口口口 |①---|
口口②② |----|
口口①① |②---|
口口口口 |----|
73
口④④口 |①---|
口③③口 |②---|
口②②口 |③---|
口①①口 |④---|
74
①口口① |①---|
②口口② |②---|
③口口③ |③---|
④口口④ |④---|
75
口口口口 |①---|
口口口口 |----|
口①①口 |----|
口口口口 |----|
76
口口口口 |①---|
口①①口 |----|
口口口口 |----|
口口口口 |----|
77
口口口口 |①---|
口④④口 |②---|
口口口③ |③---|
口②口① |④---|
78
①口②口 |①---|
③口口口 |②---|
口④④口 |③---|
口口口口 |④---|
79
口口口③ |①---|
口④④② |②---|
口口口① |③---|
口口口口 |④---|
80
口口口口 |①---|
①口口口 |②---|
②④④口 |③---|
③口口口 |④---|
81
口口口口 |①---|
口④④口 |②---|
口口口③ |③---|
口②口① |④---|
82
①口口① |①---|
②口口② |②---|
③口口③ |③---|
口口口口 |----|
83
口口口口 |①---|
口口口口 |----|
口②②口 |②---|
口①①口 |----|
84
①①①① |①---|
口口口口 |----|
口口口口 |----|
口口口口 |----|
85
口口口口 |①---|
口④④口 |②---|
口口口③ |③---|
口②口① |④---|
86
①口②口 |①---|
③口口口 |②---|
口④④口 |③---|
口口口口 |④---|
87
口口口③ |①---|
口④④② |②---|
口口口① |③---|
口口口口 |④---|
88
口口口口 |①---|
①口口口 |②---|
②④④口 |③---|
③口口口 |④---|
89
口口口口 |①---|
口④④口 |②---|
口口口③ |③---|
口②口① |④---|
90
①口口① |①---|
②口口② |②---|
③口口③ |③---|
口口口口 |----|
91
口口口口 |①---|
口口口口 |----|
口②②口 |②---|
口①①口 |----|
92
①①①① |①---|
口口口口 |----|
口口口口 |----|
口口口口 |----|
93
口口口口 |①---|
口口口口 |②---|
口口④④ |③---|
①②③口 |④---|
94
口口④④ |①---|
①②③口 |②---|
口口口口 |③---|
口口口口 |④---|
95
口口口口 |①---|
口口④④ |②---|
①②③口 |③---|
口口口口 |④---|
96
口①①口 |①---|
口口口口 |----|
口②②口 |②---|
口口口口 |----|
97
口口口口 |①---|
口④④口 |②---|
口口口口 |③---|
①②③口 |--④-|
98
口口口口 |----|
口口口口 |----|
口①①口 |①---|
口口口口 |----|
99
①口口① |①---|
②口口② |----|
口口口口 |②---|
口口口口 |----|
100
口口口口 |①---|
口②②口 |----|
①口口① |----|
口口口口 |②---|

不確定度: 0

最終更新:2016年04月18日 01:21