きらきらタイム☆
さわわ

ADVANCED

Level: 8
BPM: 202
Notes: 698

1
口口口口 |----|
口口口口 |----|
口口口口 |----|
口口口口 |----|
2
口口口口 |----|
口口口口 |----|
口口口口 |----|
口口口口 |----|
3
口口④④ |①-②-|
口③口口 |③-④-|
口口②口 |----|
口①口口 |----|
4
⑤⑤④口 |①-②-|
口③口口 |③-④-|
⑥⑥②口 |⑤---|
口①口口 |⑥---|
5
口口④④ |①-②-|
口③口口 |③-④-|
口口②口 |----|
口①口口 |----|
6
④④口口 |①---|
③③口口 |②---|
②②口口 |③---|
①①口口 |④---|
7
口④④口 |①---|
口③③口 |②---|
口②②口 |③---|
口①①口 |④---|
8
④口口④ |①---|
③口口③ |②---|
②口口② |③---|
①口口① |④---|
9
⑥口口⑥ |①-②-|
⑤口口⑤ |③-④-|
口④③口 |⑤---|
口②①口 |⑥---|
10
口①①口 |①---|
口③②口 |----|
口③②口 |②---|
口口口口 |③---|
11
②口口① |①---|
④口口③ |②---|
口口口口 |③---|
口口口口 |④---|
12
口口口口 |①---|
口口口口 |②---|
②口口① |③---|
④口口③ |④---|
13
口口口口 |①---|
口口口口 |②---|
口④③口 |③---|
口②①口 |④---|
14
②②①① |①---|
④④③③ |②---|
口口口口 |③---|
口口口口 |④---|
15
②口口① |①---|
④口口③ |②---|
口口口口 |③---|
口口口口 |④---|
16
口口口口 |①---|
口口口口 |②---|
②口口① |③---|
④口口③ |④---|
17
口口口口 |①---|
⑤④口⑤ |②---|
口口③口 |③-④-|
口②①口 |--⑤-|
18
口①口口 |--①-|
口口②口 |②-③-|
口③口口 |④---|
口口④口 |----|
19
①口口① |①---|
口④⑤口 |②-③-|
口②③口 |④-⑤-|
口口⑥口 |--⑥-|
20
口口口口 |--①-|
⑤口口口 |②-③-|
①②③④ |④-⑤-|
⑥口口口 |--⑥-|
21
⑥口口⑤ |--①-|
口②①口 |②-③-|
口④③口 |④-⑤-|
口口口口 |--⑥-|
22
口口口口 |--①-|
④⑧口③ |②-③-|
②口⑤① |④-⑤⑥|
口⑥⑦口 |⑦-⑧-|
23
⑥⑥①① |①---|
④口口⑤ |②-③-|
②口口③ |④-⑤-|
口口口口 |--⑥-|
24
口口①口 |--①-|
口②⑤⑤ |②-③-|
口口③口 |④---|
口④口口 |⑤---|
25
口③④口 |①---|
口⑤⑥口 |②---|
①①口口 |③-④-|
口口②② |⑤-⑥-|
26
口⑤⑥口 |①--②|
口口口口 |--③-|
①②③④ |-④--|
①②③④ |⑤-⑥-|
27
①口口口 |①---|
口④⑤口 |②-③-|
口②③口 |④-⑤-|
口口⑥口 |--⑥-|
28
口口口口 |--①-|
⑤口口口 |②-③-|
①②③④ |④-⑤-|
⑥口口口 |--⑥-|
29
口口口⑤ |--①-|
⑥②①口 |②-③-|
口④③⑦ |④-⑤-|
口口口口 |⑥-⑦-|
30
口口口口 |①-②-|
口⑤⑥口 |③-④-|
口⑦④口 |⑤-⑥-|
①③⑧② |⑦-⑧-|
31
①⑥⑥① |①---|
⑤口口④ |②-③-|
③口口② |④-⑤-|
口口口口 |--⑥-|
32
⑤口口⑤ |--①-|
口④②口 |②-③-|
口③①口 |④---|
口口口口 |⑤---|
33
口④③口 |①---|
①⑥⑤① |②---|
口②②口 |③-④-|
口口口口 |⑤-⑥-|
34
口口口口 |①---|
口口口口 |----|
①口口① |----|
口口口口 |----|
35
口口④④ |①-②-|
口③口口 |③-④-|
口口②口 |----|
口①口口 |----|
36
⑤⑤④口 |①-②-|
口③口口 |③-④-|
⑥⑥②口 |⑤---|
口①口口 |⑥---|
37
口口④④ |①-②-|
口③口口 |③-④-|
口口②口 |----|
口①口口 |----|
38
④④口口 |①---|
③③口口 |②---|
②②口口 |③---|
①①口口 |④---|
39
口④④口 |①---|
口③③口 |②---|
口②②口 |③---|
口①①口 |④---|
40
④口口④ |①---|
③口口③ |②---|
②口口② |③---|
①口口① |④---|
41
口⑧⑦口 |①-②-|
口⑥⑤口 |③-④-|
口④③口 |⑤-⑥-|
口②①口 |⑦-⑧-|
42
口③③口 |①---|
②口口① |----|
②口口① |②---|
口口口口 |③---|
43
口口口口 |①---|
口③口口 |----|
口②口口 |②---|
口①①口 |③---|
44
口口口口 |①---|
口口③口 |----|
口口②口 |②---|
口①①口 |③---|
45
口口口口 |①---|
口③口口 |----|
口②口口 |②---|
口①①口 |③---|
46
②②①① |①---|
④④③③ |②---|
口口口口 |③---|
口口口口 |④---|
47
口口口⑥ |①---|
口⑤④口 |②-③-|
口③②口 |④-⑤-|
口①口口 |--⑥-|
48
口②①口 |--①-|
口口口③ |--②-|
④口口口 |--③-|
口口口⑤ |④-⑤-|
49
口口口⑥ |①---|
口⑤④口 |②-③-|
口③②口 |④-⑤-|
口①口口 |--⑥-|
50
④④口口 |--①-|
口口③③ |②-③-|
②②口口 |④---|
口口①① |----|
51
口口口⑥ |①---|
口口口⑥ |②-③-|
⑤口④口 |④-⑤-|
③①②口 |--⑥-|
52
口②①口 |--①-|
口②①口 |--②-|
③口口④ |--③-|
⑤口口口 |④-⑤-|
53
⑥口口口 |①---|
⑥口口口 |②-③-|
口④口⑤ |④-⑤-|
口②①③ |--⑥-|
54
口①口口 |--①-|
口①口口 |--②-|
②口口③ |③-④-|
④口口⑤ |⑤---|
55
口①②口 |①-②-|
口③④口 |③-④-|
口⑤⑥口 |⑤-⑥-|
口⑦⑧口 |⑦-⑧-|
56
①口口② |①-②-|
③口口④ |③-④-|
⑤口口⑥ |⑤-⑥-|
⑦口口⑧ |⑦-⑧-|
57
口①⑥口 |①-②-|
⑤口口④ |③-④-|
口③⑧口 |⑤-⑥-|
⑦口②口 |⑦-⑧-|
58
④④口口 |--①-|
口口③③ |②-③-|
②②口口 |④---|
口口①① |----|
59
口口口① |①---|
口④⑤口 |②-③-|
口②③口 |④-⑤-|
口口⑥口 |--⑥-|
60
口口口口 |--①-|
⑤口口口 |②-③-|
①②③④ |④-⑤-|
⑥口口口 |--⑥-|
61
⑥口口⑤ |--①-|
口②①口 |②-③-|
口④③口 |④-⑤-|
口口口口 |--⑥-|
62
口口口口 |--①-|
④⑧口③ |②-③-|
②口⑤① |④-⑤⑥|
口⑥⑦口 |⑦-⑧-|
63
⑥⑥①① |①---|
④口口⑤ |②-③-|
②口口③ |④-⑤-|
口口口口 |--⑥-|
64
口口①口 |--①-|
口②⑤⑤ |②-③-|
口口③口 |④---|
口④口口 |⑤---|
65
口③④口 |①---|
口⑤⑥口 |②---|
①①口口 |③-④-|
口口②② |⑤-⑥-|
66
口⑤⑥口 |①--②|
口口口口 |--③-|
①②③④ |-④--|
①②③④ |⑤-⑥-|
67
①⑦口② |①-②-|
③⑧口④ |③-④-|
⑤⑨口⑥ |⑤-⑥-|
口⑩口口 |⑦⑧⑨⑩|
68
②口⑦① |①-②-|
④口⑧③ |③-④-|
⑥口⑨⑤ |⑤-⑥-|
口口⑩口 |⑦⑧⑨⑩|
69
①⑦口② |①-②-|
③⑧口④ |③-④-|
⑤⑨口⑥ |⑤-⑥-|
口⑩口口 |⑦⑧⑨⑩|
70
②口⑦① |①-②-|
④口⑧③ |③-④-|
⑥口⑨⑤ |⑤-⑥-|
口口⑩口 |⑦⑧⑨⑩|
71
④④口口 |①---|
②②口口 |②---|
③③口口 |③---|
①①口口 |④---|
72
口口④④ |①---|
口口②② |②---|
口口③③ |③---|
口口①① |④---|
73
②⑤⑧⑪ |①-②③|
③⑥⑨⑫ |④-⑤⑥|
④⑦⑩口 |⑦-⑧⑨|
口口①① |⑩-⑪⑫|
74
口口口口 |①---|
⑤口口口 |----|
③口口④ |②-③-|
①①口② |④-⑤-|
75
⑧⑧①口 |①-②-|
口②⑦口 |③-④-|
口⑥③口 |⑤-⑥-|
口④⑤口 |⑦-⑧-|
76
口口口口 |--①-|
口口口① |②-③-|
②口口口 |----|
口口口③ |----|
77
①口口① |①---|
口④⑤口 |②-③-|
口②③口 |④-⑤-|
口口⑥口 |--⑥-|
78
口口口口 |--①-|
⑤口口口 |②-③-|
①②③④ |④-⑤-|
⑥口口口 |--⑥-|
79
⑥口口⑤ |--①-|
口②①口 |②-③-|
口④③口 |④-⑤-|
口口口口 |--⑥-|
80
口口口口 |--①-|
④⑧口③ |②-③-|
②口⑤① |④-⑤⑥|
口⑥⑦口 |⑦-⑧-|
81
⑥⑥①① |①---|
④口口⑤ |②-③-|
②口口③ |④-⑤-|
口口口口 |--⑥-|
82
口口①口 |--①-|
口②⑤⑤ |②-③-|
口口③口 |④---|
口④口口 |⑤---|
83
口③④口 |①---|
口⑤⑥口 |②---|
①①口口 |③-④-|
口口②② |⑤-⑥-|
84
口⑤⑥口 |①--②|
口口口口 |--③-|
①②③④ |-④--|
①②③④ |⑤-⑥-|
85
①口口口 |①---|
①口②口 |②-③-|
⑤⑤⑥⑥ |④-⑤-|
口③④口 |--⑥-|
86
①②③④ |--①-|
⑤⑤口口 |②-③-|
口口口口 |④-⑤-|
⑥⑥口口 |--⑥-|
87
④口口⑤ |--①-|
口口口① |②-③-|
②⑥口口 |④-⑤-|
口⑧⑦③ |⑥⑦⑧-|
88
口口⑤口 |①-②-|
②⑥口① |③-④-|
口口⑦③ |⑤-⑥-|
④⑧口口 |⑦-⑧-|
89
口⑥⑥口 |①---|
口口①① |②-③-|
④口口⑤ |④-⑤-|
②口口③ |--⑥-|
90
②口口① |--①-|
②④③① |②-③-|
口④③口 |④---|
⑤⑤⑤⑤ |⑤---|
91
②①①口 |①-②-|
口口口③ |③-④-|
④口口口
口口口口

口⑧口⑦
⑥口口口
口口口⑤ |⑤-⑥-|
口口口口 |⑦-⑧-|
92
口口口口 |①---|
口口①口 |----|
口口口口 |----|
口口口口 |----|
93
①口口口 |①---|
①口②口 |②-③-|
⑤⑤⑥⑥ |④-⑤-|
口③④口 |--⑥-|
94
①②③④ |--①-|
⑤⑤口口 |②-③-|
口口口口 |④-⑤-|
⑥⑥口口 |--⑥-|
95
④口口⑤ |--①-|
口⑥⑦① |②-③-|
②口口口 |④-⑤-|
口口口③ |⑥-⑦-|
96
⑤口口⑥ |①-②-|
⑦口口口 |③-④-|
口③④口 |⑤-⑥-|
口①②口 |⑦---|
97
口⑦⑦口 |①---|
口口①① |②-③-|
④口口⑤ |④-⑤-|
②⑥⑥③ |⑥-⑦-|
98
②口口① |--①-|
②④③① |②-③-|
口④③口 |④---|
⑤口口⑤ |⑤---|
99
②口③① |①--②|
②口③① |--③-|
⑥④⑤口 |④--⑤|
⑥④⑤口 |--⑥-|
100
口②②① |①---|
口口口① |----|
口口口口 |----|
口口口口 |②---|

不確定度: 0

最終更新:2016年04月18日 01:21