Far east nightbird
猫叉Master

ADVANCED

Level: 7
BPM: 180
Notes: 538

1
口口口口 |----|
口口口口 |----|
口口口口 |----|
口口口口 |----|
2
口口口口 |----|
①口口② |----|
口口口口 |----|
口口口口 |①-②-|
3
口口口口 |----|
③口口④ |①-②-|
①口口② |----|
口口口口 |③-④-|
4
口口口口 |----|
③口口④ |①-②-|
①口口② |----|
口口口口 |③-④-|
5
口口口口 |----|
④口口③ |①-②-|
①口口② |----|
口口口口 |③-④-|
6
口口口口 |----|
④口口③ |①-②-|
②口口① |----|
口口口口 |③-④-|
7
口口口口 |----|
③口口④ |①-②-|
①口口② |----|
口口口口 |③-④-|
8
口口口口 |----|
③口口④ |①-②-|
①口口② |----|
口口口口 |③-④-|
9
口口口口 |①-②-|
⑥②④口 |--③-|
⑤①③口 |④---|
口口口口 |⑤-⑥-|
10
④口口④ |--①-|
口口口② |②---|
口口口① |③---|
③口口③ |④---|
11
⑥口口⑥ |①---|
⑤②③⑤ |②-③-|
④口口④ |④-⑤-|
口①①口 |⑥---|
12
口④④口 |①---|
⑥③③⑥ |②-③-|
⑤②②⑤ |④---|
①口口① |⑤-⑥-|
13
①口口① |①---|
口口口口 |----|
口口口口 |②---|
口②③口 |③---|
14
口④④口 |①---|
⑥③③⑥ |②-③-|
⑤②②⑤ |④---|
①口口① |⑤-⑥-|
15
①口口① |①---|
口口口口 |--②-|
口③⑤口 |③-④-|
口②④口 |⑤---|
16
口口口口 |①-②-|
③②③② |--③-|
①口口① |----|
口口口口 |----|
17
口口口口 |----|
口口口口 |----|
口口口口 |①---|
口①②口 |②---|
18
⑥④④⑥ |①---|
⑤③③⑤ |②-③-|
口②②口 |④---|
①口口① |⑤-⑥-|
19
口口口口 |----|
⑤⑥⑥⑤ |①-②-|
③④④③ |③-④-|
①②②① |⑤-⑥-|
20
①④④① |①---②-|
口口口口 |--③---|
③口口③ |④---|
②口口② |----|
21
③口口③ |----|
口口口口 |--①-|
口②②口 |②---|
①口口① |③---|
22
口口口口 |①-②-|
②②②② |----|
口口口口 |----|
口①①口 |----|
23
口①①口 |----|
②口口② |--①-|
③口口③ |②-③-|
④口口④ |④---|
24
口③③口 |①-②-|
口②②口 |--③-|
口口口口 |----|
口①①口 |----|
25
口口口口 |----|
口口口口 |--①-|
口口口口 |②---|
③①②③ |③---|
26
口④④口 |①---|
①③③① |②-③-|
口②②口 |④---|
口口口口 |----|
27
口口口口 |----|
口口口口 |----|
口③④口 |①-②-|
口②①口 |③-④-|
28
口①①口 |①---|
②口口③ |----|
口口口口 |----|
口口口口 |②-③-|
29
口口口口 |----|
口口口口 |----|
①口口② |----|
口口口口 |①-②-|
30
口口口口 |----|
口口口口 |----|
①口口口 |----|
口口口口 |①---|
31
②口口② |①---|
口③③口 |②---|
口④④① |③-④-|
口⑤⑤口 |⑤---|
32
口口口④ |①-②-|
口口口③ |③-④-|
口口⑤② |----|
口口口① |--⑤-|
33
③口口③ |①---|
④②②④ |②---|
⑤①口⑤ |③-④-|
口口口口 |⑤---|
34
口③⑤口 |①---|
口②口口 |--②-|
口口④口 |③--④|
口①①口 |--⑤-|
35
口④口口 |----|
口口③口 |--①-|
口②口口 |②-③-|
口口①口 |④---|
36
①口口① |①---|
②口口③ |----|
口口口口 |----|
口口口口 |②-③-|
37
口口口口 |----|
口口口口 |----|
①口口② |----|
口口口口 |①-②-|
38
口口口口 |----|
口口口口 |----|
口口口① |----|
口口口口 |①---|
39
②口口② |①---|
口⑤⑤口 |②---|
①④④口 |③-④-|
口③③口 |⑤---|
40
④口口口 |①-②-|
③口口口 |③-④-|
②⑥口口 |----|
①⑤口口 |⑤-⑥-|
41
口口口④ |----|
口口②③ |①-②-|
口口①口 |----|
口口口口 |③-④-|
42
口口口口 |----|
口口口口 |----|
口口口口 |----|
口口口口 |----|
43
口口口口 |----|
口口⑥⑤ |①-②-|
③④口口 |③-④-|
口口②① |⑤-⑥-|
44
③④口口 |①-②-|
②①⑤⑥ |③-④-|
⑥⑤①② |----|
口口④③ |⑤-⑥-|
45
口口②① |①-②-|
口口口口 |----|
口口口口 |----|
①②口口 |----|
46
③④口口 |①-②-|
②①⑤⑥ |③-④-|
⑥⑤①② |----|
口口④③ |⑤-⑥-|
47
口口②① |①-②-|
口口口口 |----|
口口口口 |----|
①②口口 |----|
48
③④口口 |①-②-|
②①⑤⑥ |③-④-|
⑥⑤①② |----|
口口④③ |⑤-⑥-|
49
口口②① |①-②-|
口口口口 |----|
口口口口 |----|
①②口口 |----|
50
③④口口 |①-②-|
②①⑤⑥ |③-④-|
⑥⑤①② |----|
口口④③ |⑤-⑥-|
51
③④②① |①-②-|
口口口口 |----|
口口口口 |----|
①②④③ |③-④-|
52
口口口口 |----|
口口口口 |①---|
口①②② |--②-|
口①口口 |----|
53
口口①口 |①---|
②②①口 |--②-|
④口口口 |----|
③口口口 |③-④-|
54
口口口② |----|
口口口② |①---|
口口口口 |--②-|
口口①① |----|
55
①①口口 |①---|
口口口口 |--②-|
②口口口 |----|
②口④③ |③-④-|
56
口口①口 |----|
②②①口 |①---|
口口口口 |--②-|
口口口口 |----|
57
口口口④ |①---|
口口口③ |--②-|
口①②② |--③-|
口①口口 |④---|
58
①①口口 |----|
口口口口 |①---|
②口口口 |--②-|
②口口口 |----|
59
口口口② |①---|
口口口② |--②-|
口口口口 |----|
③口①① |--③-|
60
口口口口 |①---②-|
口⑤④⑥ |--③---|
①③②口 |④---⑤-|
口口口口 |--⑥---|
61
③⑤④② |①---②-|
①口口口 |--③---|
口⑥⑥口 |④---⑤-|
口口口口 |--⑥---|
62
口口口口 |①---②-|
①口口① |--③---|
口口口口
口③②口

口口口口
口口口⑥
⑤口口④ |④---⑤-|
口口口口 |--⑥---|
63
③⑤④② |①---②-|
①口口口 |--③---|
口⑥⑥口 |④---⑤-|
口口口口 |--⑥---|
64
口口口口 |①---②-|
①口口① |--③---|
口口口口
口③②口

口口口口
口口口⑥
⑤口口④ |④---⑤-|
口口口口 |--⑥---|
65
③⑤口② |①---②-|
①⑤④口 |--③---|
口口口口 |④---|
口口口口 |⑤---|
66
口口口口 |----|
口口口口 |----|
口口口口 |----|
口口口口 |----|
67
①口口① |①---|
②⑤⑤② |②---|
①④④① |③-④-|
口③③口 |⑤---|
68
口口口口 |----|
口⑥⑤口 |①-②-|
④口口③ |③-④-|
②口口① |⑤-⑥-|
69
①口口② |①---|
①⑤⑤② |②---|
口③④口 |③-④-|
口③④口 |⑤---|
70
②③③② |----|
①④④① |①-②-|
口⑤⑤口 |③-④-|
口⑥⑥口 |⑤-⑥-|
71
②口口② |①---|
口③③口 |--②-|
①口口① |----|
口口口口 |③---|
72
②口口① |----|
④口口③ |①-②-|
⑥口口⑤ |③-④-|
口口口口 |⑤-⑥-|
73
口④③口 |①-②-|
口⑥⑤口 |③-④-|
口⑧⑦口 |⑤-⑥-|
②口口① |⑦-⑧-|
74
口⑥⑤口 |①-②-|
口⑧⑦口 |③-④-|
口口口口 |⑤-⑥-|
④②①③ |⑦-⑧-|
75
①口口① |①---|
②⑤⑤② |②---|
①④④① |③-④-|
口③③口 |⑤---|
76
口口口口 |----|
口⑥⑤口 |①-②-|
④口口③ |③-④-|
②口口① |⑤-⑥-|
77
①口口② |①---|
①⑤⑤② |②---|
口③④口 |③-④-|
口③④口 |⑤---|
78
口口口口 |----|
口口口口 |----|
口口口口 |----|
口口口口 |----|
79
口口口口 |①---|
③③③③ |--②-|
②②②② |----|
①①①① |③---|
80
口口口口 |----|
口⑥⑤口 |①-②-|
④口口③ |③-④-|
②口口① |⑤-⑥-|
81
口口口口 |①-②-|
②⑧⑦① |③-④-|
口④③口 |⑤-⑥-|
口⑥⑤口 |⑦-⑧-|
82
④②①③ |①-②-|
口口口口 |③-④-|
⑧⑥⑤⑦ |⑤-⑥-|
口口口口 |⑦-⑧-|
83
②③④⑤ |①---②-|
⑥口口口 |--③---|
口口口口 |④---⑤-|
口①①口 |--⑥---|
84
④⑤口⑥ |①---②-|
口①②③ |--③---|
口口口口 |④---⑤-|
口口口口 |--⑥---|
85
③③③③ |①---|
②②②② |--②-|
①口口① |----|
①口口① |③---|


不确定度: 0

タグ:

+ タグ編集
  • タグ:

このサイトはreCAPTCHAによって保護されており、Googleの プライバシーポリシー利用規約 が適用されます。

最終更新:2012年11月10日 13:56