パ→ピ→プ→Yeah!
ヒゲドライバー join. shully & Nimo

EXTREME

Level: 10
BPM: 160
Notes: 846

1
口口口口 |----|
口口口口 |----|
口口口口 |----|
口口口口 |----|
2
口②①⑥ |①---|
⑤口⑤口 |②---|
⑤④口口 |③-④-|
口口③口 |⑤-⑥-|
3
③①①口 |①---|
口④口口 |②---|
口口⑤② |③--④|
口⑤⑤② |--⑤-|
4
③①①③ |①---|
③口④④ |②---|
②⑤口④ |③--④|
②⑤⑤口 |--⑤-|
5
口①①口 |①---|
口③口口 |②---|
②口④口 |③--④|
②口口⑤ |--⑤-|
6
①②②口 |①---|
①口②口 |②---|
①②口口
①②②口

口口口③
⑤④口⑥
⑤口④⑥ |③-④-|
⑤口口⑥ |⑤-⑥-|
7
①①①口 |①---|
口口口口 |②---|
口口口口
口②②口

口口⑤⑤
口③口⑤
口口④口 |③--④|
⑤口口口 |--⑤-|
8
①口口口 |①---|
①口口口 |②---|
②口口②
口口①①

⑤⑤口口
⑤口③口
口④口口 |③--④|
口口口⑤ |--⑤-|
9
口口口① |①---|
口口口① |②---|
②口口②
①①口口

口口⑤⑤
口③口⑤
口口④口 |③--④|
⑤口口口 |--⑤-|
10
口口口口 |①---|
①口①口 |----|
口①口口
口①口口

口②⑤口
⑥口口⑨
④口口③ |②③④⑤|
口⑧⑦口 |⑥⑦⑧⑨|
11
①⑤口① |①-②-|
口口口口 |③-④⑤|
④口口口
②口口③

口口⑦口
口口⑧口
口口⑨⑥ |-⑥⑦-|
⑨口口口 |⑧-⑨-|
12
①⑤口口 |①-②-|
⑤④⑥② |③-④-|
口⑥口⑦ |⑤--⑥|
口③⑦⑦ |--⑦-|
13
口口③① |①-②-|
口⑤⑤口 |③-④⑤|
②口口口
④④口口

⑦⑦口⑧
口口口⑨
口⑥⑥口 |-⑥⑦-|
口口口口 |⑧-⑨-|
14
⑤⑦⑧⑥ |①-②-|
⑧④③⑦ |③-④-|
①⑥⑤② |⑤-⑥-|
③②①④ |⑦-⑧-|
15
⑩⑨⑧口 |①-②-|
口②②口 |③④⑤⑥|
③口⑦④ |-⑦⑧-|
⑤①①⑥ |⑨-⑩-|
16
口口口④ |①②③-|
①口⑤口 |④⑤⑥-|
口②口⑥
③口口口

口口⑦口
口⑧口⑦
⑨口⑧口 |⑦--⑧|
⑨⑨口口 |--⑨-|
17
①⑥⑥② |①-②③|
⑦⑬③⑩ |④⑤-⑥|
口⑪⑧④ |-⑦⑧⑨|
⑨口⑤⑫ |⑩⑪⑫⑬|
18
④⑥⑥② |①②-③|
⑧口口⑧ |④-⑤-|
③⑨⑨① |⑥-⑦⑧|
⑦⑤⑤⑦ |--⑨-|
19
②③口口 |①---|
口①①口 |②-③-|
①口口①
口口口口

口口④⑤
⑦口口⑥
口口口⑦ |④-⑤-|
口⑦口口 |⑥-⑦-|
20
口②②口 |①---|
口①口口 |②---|
口口口口
①口口①

口口口口
口⑥⑤口
口③④口 |③-④-|
⑥④③⑤ |⑤-⑥-|
21
①①①① |①---|
②口口口 |②---|
②口口口
口口口口

⑤口口口
口口③口
口④口⑤ |③--④|
口口⑤⑤ |--⑤-|
22
口②①① |①---|
口口口口 |②---|
①口口口
①②口口

口口⑤⑤
口④口⑤
口口③口 |③--④|
⑤口口口 |--⑤-|
23
①②口口 |①---|
①口口口 |②---|
口口口口
口②①①

⑤口口口
口③口口
④口口⑤ |③--④|
口口⑤⑤ |--⑤-|
24
口口口口 |①---|
①口①口 |----|
口①口口
口①口口

口⑤②口
⑨口口⑥
③口口④ |②③④⑤|
口⑦⑧口 |⑥⑦⑧⑨|
25
①⑤口① |①-②-|
口口口口 |③-④⑤|
口④口口
②口口③

口口⑧⑨
口口⑥⑦
口口口口 |-⑥⑦⑧|
⑩口口口 |⑨-⑩-|
26
①口口口 |①-②-|
口④口口 |③-④-|
口口③口
口口口②

口⑤口口
⑤口⑥口
口⑥口⑦ |⑤--⑥|
口口⑦⑦ |--⑦-|
27
口口⑥① |①-②③|
口口口口 |④-⑤⑥|
②口⑤口
④③口口

⑩⑨口⑪
⑧⑦口⑪
口口口口 |-⑦⑧⑨|
口口口口 |⑩-⑪-|
28
⑤⑦⑧⑥ |①-②-|
⑧④③⑦ |③-④-|
①⑥⑤② |⑤-⑥-|
③②①④ |⑦-⑧-|
29
④口口⑥ |①-②③|
口③⑤⑦ |④-⑤⑥|
②口口⑧ |--⑦-|
口①①⑨ |⑧-⑨-|
30
口④口⑤ |①-②③|
③口口口 |④-⑤-|
口②口口
口①①口

口口⑥口
口⑦口⑥
⑧口⑦口 |⑥--⑦|
⑧⑧口口 |--⑧-|
31
①⑥口④ |①-②③|
⑤口③口 |④-⑤⑥|
口口口②
口口口口

⑪口⑩口
口⑨口⑫
口口⑧口 |--⑦⑧|
⑦口口口 |⑨⑩⑪⑫|
32
口口口口 |①②③-|
③口⑥口 |④-⑤⑥|
①口口⑤
口④④②

⑨口口⑦
口⑧口口
口口口口 |⑦-⑧⑨|
⑩口口⑩ |--⑩-|
33
③①①④ |①---|
②③④② |--②-|
口⑤口口 |--③-|
⑤口口口 |④-⑤-|
34
④③③口 |①--②|
③口口③ |--③-|
④口①口 |----|
口②②① |--④-|
35
口②②① |①---|
④口口⑤ |②---|
口口口① |③---|
④③③⑤ |④-⑤-|
36
①②①② |①---|
口①口口 |--②-|
①口①口
口口口口

③口口口
口口口口
口③口口 |----|
口口口口 |--③-|
37
⑤④③② |①---|
口①口口 |----|
口口口口 |②-③-|
①口口口 |④-⑤-|
38
口口口口 |①--②|
②口口② |--③-|
口③③口
①口口①

口口口口
口口口口
口口口口 |----|
口口④④ |--④-|
39
口口①③ |①--②|
④⑥②② |--③-|
⑤⑤③① |④--⑤|
⑥④口口 |--⑥-|
40
②②口③ |①--②|
口口口口 |--③-|
口口口①
口口口①

口口口口
④口④⑤
④④④⑤ |④---|
口口④⑤ |⑤---|
41
①②③④ |①-②-|
口口⑧⑤ |③-④-|
口口⑧⑥ |⑤-⑥-|
①①⑧⑦ |⑦-⑧-|
42
②口②口 |①---|
①②③口 |----|
①②③③ |②---|
①口③③ |③---|
43
③①③① |①--②|
②⑤口⑥ |--③-|
③口⑤④ |④--⑤|
②⑥④⑤ |--⑥-|
44
②口③① |①--②|
口口②口 |--③-|
③②口口
①口口口

口④口口
④⑤口口
口口⑤④ |④---|
⑤⑥④口 |⑤-⑥-|
45
⑤④③② |①②-③|
⑨⑩⑥③ |-④-⑤|
⑧①⑩④ |⑥⑦-⑧|
⑦⑧⑨⑤ |-⑨-⑩|
46
⑤④③② |①②-③|
口口口③ |-④-⑤|
口①口④
口口口⑤

口口口口
⑦口⑦口
⑥⑦口口 |⑥---|
⑥⑦口口 |⑦---|
47
⑧②⑧① |--①-|
口⑥口⑥ |②-③-|
④⑦③⑦ |④-⑤⑥|
⑤口⑤口 |-⑦⑧-|
48
口②口② |①--②|
③⑤④⑤ |--③-|
口⑤口⑤ |④---|
③①④① |⑤---|
49
②③④⑤ |①②-③|
③⑥⑩⑨ |-④-⑤|
④⑩①⑧ |⑥⑦-⑧|
⑤⑨⑧⑦ |-⑨-⑩|
50
③⑥①⑥ |--①-|
②②⑦口 |②-③-|
③⑦①④ |④-⑤⑥|
⑤口⑤口 |--⑦-|
51
②⑥④⑤ |①--②|
③②⑤④ |--③-|
②⑤①⑥ |④--⑤|
③①③① |--⑥-|
52
①口口口 |①--②|
③②口口 |--③-|
口口②口
②口③①

⑤⑥④口
口口⑤④
④⑤口口 |④---|
口④口口 |⑤-⑥-|
53
⑦⑧⑨⑤ |①②-③|
⑧①⑩④ |-④-⑤|
⑨⑩⑥③ |⑥⑦-⑧|
⑤④③② |-⑨-⑩|
54
口口口⑤ |①②-③|
口①口④ |-④-⑤|
口口口③
⑤④③②

⑦⑥⑦口
⑥⑦口口
口⑦⑥口 |⑥---|
口口口口 |⑦---|
55
⑥口口④ |--①-|
⑥口口③ |②-③-|
口口口② |④--⑤|
⑤口⑤① |--⑥-|
56
口口①③ |①--②|
口口①③ |--③-|
口口口口
口②口②

口④⑥口
口④口口
口⑤⑤⑥ |④---|
口口口口 |⑤-⑥-|
57
⑤⑨⑧⑦ |①②-③|
④⑩①⑧ |-④-⑤|
③⑥⑩⑨ |⑥⑦-⑧|
②③④⑤ |-⑨-⑩|
58
口口口③ |--①-|
②口①口 |②-③-|
口③口口
①口②口

④口口口
口口⑥口
⑤口口口 |④--⑤|
⑥⑤口④ |--⑥-|
59
口①①口 |①---|
①口口① |----|
口口口口
口口口口

口口⑤⑤
口②口⑤
口④③口 |②-③④|
⑤口口口 |--⑤-|
60
①口口口 |①---|
①口口口 |②---|
②口口②
口口①①

⑥⑥口口
⑥口③口
口④⑤口 |③-④⑤|
口口口⑥ |--⑥-|
61
口口口① |①---|
口口口① |②---|
②口口②
①①口口

口口⑥⑥
口③口⑥
口口⑤口 |③-④⑤|
⑥口口④ |--⑥-|
62
⑥口口⑥ |①---|
①口①口 |②---|
②①⑤③ |③-④⑤|
口①④口 |⑥---|
63
口①①③ |①---|
口口④口 |②---|
②⑤口口 |③--④|
②⑤⑤口 |--⑤-|
64
③①①③ |①---|
④④口③ |②---|
④口⑤② |③--④|
口⑤⑤② |--⑤-|
65
口①①③ |①---|
口口④口 |②---|
口⑤口② |③--④|
口⑤⑤② |--⑤-|
66
②①①② |①---|
⑧⑥口③ |②---|
④口⑦⑨ |③④⑤⑥|
⑩口口⑤ |⑦⑧⑨⑩|
67
①①①① |①---|
口口口口 |②---|
口口口口
口②②口

口口⑤⑤
口③口⑤
口口④口 |③--④|
⑤口口口 |--⑤-|
68
①口口口 |①---|
①口口口 |②---|
②口口②
口口①①

⑤⑤口口
⑤口③口
口④口口 |③--④|
口口口⑤ |--⑤-|
69
口口口① |①---|
口口口① |②---|
②口口②
①①口口

口口⑤⑤
口③口⑤
口口④口 |③--④|
⑤口口口 |--⑤-|
70
②口口口 |①---|
①口①口 |②---|
口①口口
口①口②

口③⑥口
⑦口口⑩
⑤口口④ |③④⑤⑥|
口⑨⑧口 |⑦⑧⑨⑩|
71
①口口① |①---|
口口口口 |----|
口①①口 |----|
口口口口 |----|

不確定度: 0

最終更新:2016年04月18日 01:31