朱と碧のランページ
NU-KO

BASIC

Level: 3
BPM: 178
Notes: 292

1
口口口口 |----|
口口口口 |----|
口口口口 |----|
口口口口 |----|
2
①口口① |①---|
口②②口 |--②-|
口③③口 |----|
口口口口 |--③-|
3
口口口口 |----|
口口口口 |--①-|
口口口口 |----|
口①①口 |----|
4
口口口口 |----|
口口口口 |----|
口口口口
口口口口
5
口口口口 |①---|
口口口口 |--②-|
口③口口 |----|
口①②口 |③---|
6
口口③口 |--①-|
口②口口 |----|
口口①口 |②---|
口口口口 |③---|
7
口口口口 |①---|
口口口口 |--②-|
口口③口 |----|
口②①口 |③---|
8
口③口口 |--①-|
口口②口 |----|
口①口口 |②---|
口口口口 |③---|
9
口口①口 |①---|
口口口口 |----|
口口口口 |----|
口口口口 |----|
10
口口口口 |①---|
口口口① |----|
口口口口 |----|
口口口口 |----|
11
口口口口 |①---|
口口①口 |----|
口口口口 |----|
口口口口 |----|
12
口口口口 |----|
口口口口 |----|
口口口口 |----|
口口口口 |----|
13
口口口口 |①---|
口口口口 |----|
①口口口 |----|
口口口口 |----|
14
口口口口 |①---|
口口口口 |----|
口①口口 |----|
口口口口 |----|
15
口口口口 |①---|
口口口口 |----|
口口①口 |----|
口口口口 |----|
16
口口口口 |①---|
口口口口 |----|
口口口① |----|
口口口口 |----|
17
口口口口 |①---|
口口口口 |----|
①①口口 |----|
口口口口 |----|
18
口口口口 |①---|
口口口口 |----|
口口①① |----|
口口口口 |----|
19
口口口口 |①---|
口①①口 |----|
口口口口 |----|
口口口口 |----|
20
口①①口 |①---|
口口口口 |----|
口口口口 |----|
口口口口 |----|
21
口口口口 |①---|
①①口口 |----|
口口口口 |----|
口口口口 |----|
22
口口口口 |①---|
口口①① |----|
口口口口 |----|
口口口口 |----|
23
口口口口 |①---|
口口口口 |----|
口①①口 |----|
口口口口 |----|
24
口口口口 |①---|
口②②口 |----|
口口口口 |②---|
口①①口 |----|
25
口口口口 |①---|
口口口口 |②---|
①②③④ |③---|
口口口口 |④---|
26
口②②口 |①---|
口口口① |----|
口口口口 |②---|
口口口口 |----|
27
口口口口 |①---|
④③②① |②---|
口口口口 |③---|
口口口口 |④---|
28
口口口口 |①---|
口②②口 |----|
①口口口 |②---|
口口口口 |----|
29
口口口口 |①---|
口口口口 |②---|
口④③口 |③---|
口②①口 |④---|
30
口②②口 |①---|
口口①口 |----|
口口口口 |②---|
口口口口 |----|
31
口口口口 |①---|
口①②口 |②---|
口③④口 |③---|
口口口口 |④---|
32
口口口口 |①---|
口②②口 |----|
口口口口 |②---|
口①口口 |----|
33
口口口口 |①---|
口口口口 |②---|
④③②① |③---|
口口口口 |④---|
34
口②②口 |①---|
①口口口 |----|
口口口口 |②---|
口口口口 |----|
35
口口口口 |①---|
①②③④ |②---|
口口口口 |③---|
口口口口 |④---|
36
口口口口 |①---|
口口口口 |----|
口口口① |②---|
口②②口 |----|
37
口口口口 |①---|
②口口② |----|
①口口① |②---|
口口口口 |----|
38
口口口口 |①---|
口②②口 |----|
口①①口 |②---|
口口口口 |----|
39
①①①① |①---|
口口口口 |----|
口口口口 |----|
口口口口 |----|
40
口口口口 |----|
口口口口 |----|
口口口口 |①---|
口②①口 |②---|
41
口口口口 |①---|
口②①口 |②---|
口④③口 |③---|
口口口口 |④---|
42
③口口③ |①---|
②口口② |②---|
①口口① |③---|
口口口口 |----|
43
口口口口 |①---|
口③④口 |②---|
口①②口 |③---|
口口口口 |④---|
44
①口口① |①---|
口口口口 |----|
口口口口 |----|
口口口口 |----|
45
口①①口 |①---|
口口口口 |----|
口②②口 |②---|
口口口口 |----|
46
口口口口 |①---|
口①①口 |----|
口口口口 |②---|
口②②口 |----|
47
口口口口 |①---|
口口口口 |②---|
②④③① |③---|
口口口口 |④---|
48
口口口口 |①---|
口①①口 |----|
口口口口 |②---|
口③②口 |③---|
49
口口口口 |①---|
③④②① |②---|
口口口口 |③---|
口口口口 |④---|
50
口口口口 |①---|
口口口口 |②---|
③④②① |③---|
口口口口 |④---|
51
口口口口 |①---|
口口口口 |②---|
口④③口 |③---|
口②①口 |④---|
52
口④③口 |①---|
口②①口 |②---|
口口口口 |③---|
口口口口 |④---|
53
口口口① |①---|
口口口② |②---|
口口口③ |③---|
口口口④ |④---|
54
①口口口 |①---|
②口口口 |②---|
③口口口 |③---|
④口口口 |④---|
55
口④口口 |①---|
口口③口 |②---|
口②口口 |③---|
口口①口 |④---|
56
①口口① |①---|
口口口口 |----|
口口口口 |----|
口口口口 |----|
57
口口口口 |①---|
②口口① |--②-|
②③③① |----|
口口口口 |--③-|
58
口口口口 |----|
口口口口 |--①-|
口口口口 |----|
口①①口 |----|
59
口③③口 |①---|
②口口② |--②-|
①口口① |----|
口口口口 |--③-|
60
口口口口 |----|
口口口口 |----|
口口口口 |----|
口口口口 |----|
61
口口口口 |①---|
③④口口 |②---|
口口②① |③---|
口口口口 |④---|
62
口口口口 |①---|
口口②① |②---|
③④口口 |③---|
口口口口 |④---|
63
口口口口 |①---|
口口口口 |②---|
口④③口 |③---|
口②①口 |④---|
64
口口③口 |①---|
口②①口 |②---|
口口口口 |③---|
口口口口 |----|
65
口口口口 |①---|
①②③④ |②---|
口口口口 |③---|
口口口口 |④---|
66
口口口口 |①---|
口口口口 |②---|
口④口① |③---|
口②③口 |④---|
67
口口③口 |①---|
口②口口 |--②-|
口口①口 |----|
口口口口 |③---|
68
口①口口 |--①-|
口口口口 |----|
口口口口 |----|
口口口口 |----|
69
口口口口 |①---|
①①②② |----|
口口口口 |②---|
口口口口 |----|
70
口口口口 |①---|
口口口口 |----|
①①②② |②---|
口口口口 |----|
71
口口口口 |①---|
①口口② |----|
①口口② |②---|
口口口口 |----|
72
口口口口 |①---|
口①②口 |----|
口①②口 |②---|
口口口口 |----|
73
口口口口 |①---|
口口口口 |②---|
口口口口 |③---|
①②③④ |④---|
74
口口口口 |①---|
口口口口 |②---|
①②③④ |③---|
口口口口 |④---|
75
口口口口 |①---|
①②③④ |②---|
口口口口 |③---|
口口口口 |④---|
76
口①①口 |①---|
口口口口 |----|
口口口口 |②---|
口③②口 |③---|
77
口口口口 |①---|
③④②① |②---|
口口口口 |③---|
口口口口 |④---|
78
口口口口 |①---|
口口口口 |②---|
③④②① |③---|
口口口口 |④---|
79
口口口口 |①---|
口口口口 |②---|
口④③口 |③---|
口②①口 |④---|
80
口④③口 |①---|
口②①口 |②---|
口口口口 |③---|
口口口口 |④---|
81
口口口① |①---|
口口口② |②---|
口口口③ |③---|
口口口④ |④---|
82
①口口口 |①---|
②口口口 |②---|
③口口口 |③---|
④口口口 |④---|
83
口④口口 |①---|
口口③口 |②---|
口②口口 |③---|
口口①口 |④---|
84
①口口① |①---|
口口口口 |----|
口口口口 |----|
口口口口 |----|
85
口口口口 |①---|
②口口① |--②-|
②③③① |----|
口口口口 |--③-|
86
口口口口 |----|
口口口口 |--①-|
口口口口 |----|
口①①口 |----|
87
口③③口 |①---|
②口口② |--②-|
①口口① |----|
口口口口 |--③-|
88
口口口口 |----|
口口口口 |----|
口口口口 |----|
口口口口 |----|
89
口口口口 |①---|
③①①③ |--②-|
口②②口 |----|
口口口口 |③---|
90
口口口口 |--①-|
③口口③ |----|
①②②① |②---|
口口口口 |--③-|

不確定度: 0

最終更新:2016年04月12日 02:53