チョコレートスマイル
日向美ビタースイーツ♪ & ここなつ

ADVANCED

Level: 8
BPM: 196
Notes: 611

1
口口口口 |----|
口口口口 |----|
口口口口 |----|
口口口口 |----|
2
口口口口 |①---|
①口④④ |②---|
②口口口 |③---|
③口口口 |--④-|
3
①①口口 |----|
口口口口 |----|
口口口口 |--①-|
口口口口 |----|
4
口口口口 |①---|
④④口① |②---|
口口口② |③---|
口口口③ |--④-|
5
口口口口 |--①-|
口口口口 |--②-|
口口口口 |----|
口①②口 |----|
6
口口口口 |①---|
口③②① |②---|
④口口口 |③---|
口④口口 |--④-|
7
④口口④ |----|
口口口口 |①---|
口口口① |②-③-|
②口①③ |--④-|
8
口口口口 |----|
②口口③ |①---|
口①①口 |②-③-|
④口口⑤ |④-⑤-|
9
③③口口 |--①-|
②②口口 |--②-|
口口口① |③---|
口口①口 |----|
10
口口口① |①---|
口口口② |②---|
口口口③ |③---|
口④④口 |--④-|
11
口口口口 |----|
②口口口 |----|
①口口口 |①---|
口口口口 |②---|
12
①口口口 |①---|
口②③口 |----|
口口口口 |②---|
口口口口 |③---|
13
口口口口 |①---|
口④口① |②---|
口口口③ |③---|
②口口口 |④---|
14
⑤⑤①口 |①---|
口口口② |②---|
口口口③ |③---|
口口口④ |④-⑤-|
15
口口④④ |----|
口口①口 |①---|
口口口口 |②-③-|
口②③口 |--④-|
16
①口口口 |----|
口②口口 |①---|
口口③口 |②---|
口口口口 |③---|
17
口②②口 |①---|
口口口口 |--②-|
口口口口 |----|
口口口① |----|
18
①口口① |①---|
②口口口 |②---|
③口口口 |③---|
口④④口 |--④-|
19
口口口口 |----|
口口口② |----|
口口口① |①---|
口口口口 |②---|
20
口⑤⑤① |①---|
口口口口 |②---|
口口口口 |③---|
④③②口 |④-⑤-|
21
口口口口 |----|
口口③口 |①---|
②口口口 |②---|
口口口① |③---|
22
口①⑤⑤ |①---|
②口口口 |②---|
③口口口 |③---|
④口口口 |④-⑤-|
23
④④口口 |----|
口①口口 |①---|
口口口口 |②-③-|
口③②口 |--④-|
24
口口口① |----|
口口②口 |①---|
口③口口 |②---|
口口口口 |③---|
25
口②口口 |①---|
②口口口 |--②-|
口口口口 |----|
①口口口 |----|
26
口⑤⑤口 |--①-|
②口口① |②-③-|
口口口口 |④-⑤-|
④口口③ |----|
27
①口口口 |①---|
②口口口 |②---|
③口口口 |③---|
口⑤④口 |④-⑤-|
28
④④口② |--①-|
③③口口 |--②-|
口口口① |--③-|
口口口口 |④---|
29
口口口口 |①---|
④口口① |②-③-|
口口口口 |--④-|
⑤②③口 |--⑤-|
30
①口口口 |--①-|
口②口口 |--②-|
口口③口 |--③-|
口口口口 |----|
31
口⑤⑤① |①---|
口口口口 |②---|
口口口② |③-④-|
口③④口 |--⑤-|
32
口口④④ |--①-|
口口③③ |--②-|
②口口① |--③-|
②口口① |④---|
33
③④⑤⑥ |①---|
口口口口 |②---|
口口①口 |③-④-|
口②口口 |⑤-⑥-|
34
口口口口 |----|
口口口口 |----|
口口口口 |--①-|
①口口② |②---|
35
口①①口 |①---|
①口②① |----|
口口口口 |②---|
口③④口 |③-④-|
36
口口④④ |----|
①口口口 |----|
口口②口 |①-②-|
③口口口 |③-④-|
37
④④口口 |----|
②口口③ |①---|
②口口③ |②-③-|
口口①① |--④-|
38
④口口④ |----|
③口口② |①---|
③口口② |②-③-|
①①口口 |--④-|
39
⑦⑦⑦⑦ |--①-|
口⑤⑥口 |②-③-|
口③④口 |④-⑤-|
口①②口 |⑥-⑦-|
40
口口口口 |----|
口口口口 |----|
口口口口 |①-②-|
①②③④ |③-④-|
41
①⑤⑤① |①---|
⑤⑤口② |②---|
口口口③ |③---|
④口口④ |④-⑤-|
42
④口口④ |----|
口口口口 |--①-|
口①②③ |②-③-|
口①②③ |--④-|
43
口③③口 |----|
①④④② |①---|
①口口② |②---|
口口口口 |③-④-|
44
④口口④ |①---|
口口口口 |②---|
②①①③ |③---|
口②③口 |④---|
45
口口口口 |①---|
①口①口 |----|
②口②口 |②---|
③口③口 |--③-|
46
口口口口 |----|
口③②① |--①-|
口③②① |②-③-|
口口④④ |--④-|
47
①①③③ |①---|
②口④② |②---|
②口④② |③---|
③③口口 |④---|
48
①①口口 |①-②-|
②②口口 |③-④-|
③③口口 |----|
④④口口 |----|
49
口口①① |①---|
口口①口 |②---|
口口①①
口口口②

④口⑤⑤
③⑤⑤口
③口口口 |③---|
③③口口 |④-⑤-|
50
口口口④ |----|
口口口口 |--①-|
③②①口 |②-③-|
③②①口 |--④-|
51
口口口口 |----|
②口口① |①---|
②④④① |②---|
口③③口 |③-④-|
52
②②②② |①---|
④①①③ |②---|
口口口口 |③---|
④口口③ |④---|
53
口③口③ |①---|
口②口② |----|
口①口① |②---|
口口口口 |--③-|
54
口口④④ |----|
①②③口 |--①-|
①②③口 |②-③-|
④④口口 |--④-|
55
口口口口 |----|
①口③② |①---|
②③口① |②---|
口口口口 |③---|
56
③②②② |①---|
口④口口 |--②-|
⑤口口口 |--③-|
①①①口 |④-⑤-|
57
口口口② |①---|
口口③口 |----|
口④口口 |--②-|
口①口口 |③-④-|
58
口口口① |----|
口口②口 |----|
口口口③ |--①-|
口口口口 |②-③-|
59
口口口口 |①---|
④口口口 |----|
口口③口 |--②-|
②口①口 |③-④-|
60
口口①口 |①---|
口③口口 |----|
口口口口 |--②-|
②口④口 |③-④-|
61
口④口② |①---|
口口口① |----|
口口③口 |--②-|
口口口口 |③-④-|
62
口口口② |①---|
口口③口 |----|
①④口口 |--②-|
口口口口 |③-④-|
63
口②③口 |①---|
口口口口 |②-③-|
口口口口
①口口口

口口口口
④口口⑤
④口口⑤ |--④-|
⑥口口口 |⑤-⑥-|
64
⑤④④⑤ |①-②-|
⑥口口⑥ |③-④-|
⑦口口⑦ |--⑤-|
口①②③ |⑥-⑦-|
65
④⑤口口 |①---|
③口①口 |--②-|
口口口口 |--③-|
口②口口 |④-⑤-|
66
口口口口 |--①-|
口⑤口口 |②-③-|
口口口③ |--④-|
口④①② |--⑤-|
67
口③③口 |--①-|
③口口③ |--②-|
②口口② |----|
①口口① |③---|
68
口口口口 |①-②-|
口口口④ |--③-|
口①②口 |--④-|
③口口口 |----|
69
④口口④ |①-②-|
口①②口 |--③-|
口口口口 |--④-|
③口口③ |----|
70
口④⑤口 |①---|
口①口口 |②---|
口口②口 |③---|
口口口③ |④-⑤-|
71
④口口④ |----|
口口③口 |--①-|
口口②口 |②-③-|
口口①口 |--④-|
72
口③④口 |----|
口口口口 |①---|
①口口口 |②---|
②口口口 |③-④-|
73
口口口① |①---|
口口②口 |②---|
口③口口 |③---|
④口口口 |④---|
74
口口口口 |①---|
口①口口 |----|
口口②口 |②---|
口口口③ |--③-|
75
①口口口 |----|
②口口口 |--①-|
③口口④ |②-③-|
口口口口 |--④-|
76
口口口① |①---|
口口②口 |②---|
口③口口 |③---|
④口口口 |④---|
77
口口①① |①-②-|
口口②② |③-④-|
口口③③ |----|
口口④④ |----|
78
①①口② |①---|
①口口口 |②---|
①①口口
口口口口

口⑤⑤口
⑤⑤③口
口口③口 |③---|
④口③③ |④-⑤-|
79
④口口④ |----|
口口口口 |--①-|
口①②③ |②-③-|
口①②③ |--④-|
80
口①②口 |----|
①口口② |①---|
口口口③ |②---|
口口③口 |③---|
81
④④④④ |①---|
③③③口 |②---|
②②口口 |③---|
①口口口 |④---|
82
口口口口 |①---|
口③②① |----|
口口口口 |②---|
口③②① |--③-|
83
口口③③ |----|
口口②② |--①-|
口口①① |②-③-|
口口④④ |--④-|
84
①①口口 |①---|
②④④③ |②---|
③⑤⑤② |③---|
口口口口 |④-⑤-|
85
②②②② |①---|
口口口口 |--②-|
口口口口
口①①口

口口口口
口口口口
口④口口 |--③-|
③口⑤口 |④-⑤-|
86
②口口口 |①---|
口③口口 |----|
口口④① |--②-|
口口口口 |③-④-|
87
口③口① |----|
口口②口 |----|
口口口口 |--①-|
口口口口 |②-③-|
88
口口口口 |①---|
①③口口 |----|
口口口口 |--②-|
②口④口 |③-④-|
89
②口口口 |①---|
口口③① |----|
④口口口 |--②-|
口口口口 |③-④-|
90
口口口口 |①---|
口口口④ |----|
口③口口 |--②-|
口口①② |③-④-|
91
②①口口 |①---|
口③口口 |----|
口口④口 |--②-|
口口口口 |③-④-|
92
口③②口 |①---|
口口口口 |②-③-|
口口口口
口口口①

口口口口
⑤口口④
⑤口口④ |--④-|
口口口⑥ |⑤-⑥-|
93
⑤④④⑤ |①-②-|
⑥口口⑥ |③-④-|
⑦口口⑦ |--⑤-|
③②①口 |⑥-⑦-|
94
⑤口口⑤ |①---|
口①口口 |②---|
口②口口 |③-④-|
口③④口 |--⑤-|
95
口①口口 |----|
口①口口 |----|
口①口口 |--①-|
口①口口 |----|
96
②口①② |①---|
口口口① |----|
①口口口 |----|
①口口口 |--②-|
97
⑤⑤口口 |--①-|
口③②① |②-③-|
口③②① |--④-|
口口④④ |⑤---|
98
口口④④ |①---|
①⑤⑤② |②---|
②口口① |③-④-|
③③口口 |--⑤-|
99
④④④口 |----|
口口口① |①---|
③口③① |②-③-|
②口②口 |--④-|
100
④口口⑤ |----|
口①①口 |①---|
②口口③ |②-③-|
口口口口 |④-⑤-|
101
口②③口 |--①-|
口②口③ |--②-|
③②口口 |③---|
③②口① |----|

不確定度: 0

最終更新:2016年04月18日 01:28