ツーマンライブ
東雲夏陽 meets 日向美ビタースイーツ♪

ADVANCED

Level: 6
BPM: 174
Notes: 427

1
口口口口 |----|
口口口口 |----|
口口口口 |----|
口口口口 |----|
2
口口口④ |----|
口口③口 |----|
口②口口 |①-②-|
①口口口 |③-④-|
3
①①⑤⑤ |----|
口口口② |①---|
口口③口 |②-③-|
口④口口 |④-⑤-|
4
⑤口口口 |--①-|
口④口口 |----|
①①③口 |②-③-|
口口口② |④-⑤-|
5
⑤⑤①① |----|
②口口口 |①---|
口③口口 |②-③-|
口口④口 |④-⑤-|
6
口口口口 |--①-|
口③②口 |----|
口口①① |②-③-|
口⑤④口 |④-⑤-|
7
②口口① |--①-|
口⑥⑤口 |--②-|
口④③口 |③-④-|
口口口口 |⑤-⑥-|
8
口口口口 |--①-|
口口口口 |--②-|
口③④口 |--③-|
①口口② |④---|
9
口口口口 |----|
口口口口 |----|
口口口口 |----|
口口口口 |----|
10
口⑧口② |①-②-|
③①①④ |③-④-|
⑤①①⑥ |⑤-⑥-|
⑦口口口 |⑦-⑧-|
11
口④口口 |--①-|
口口①口 |--②-|
口②口口 |--③-|
口口③口 |--④-|
12
口口口口 |--①-|
④口①口 |--②-|
口②口口 |--③-|
口口③口 |--④-|
13
④②①口 |----|
口口③口 |①-②-|
口口口口 |--③-|
口口口口 |--④-|
14
口口④④ |--①-|
口①口口 |--②-|
②口口口 |--③-|
口③口口 |--④-|
15
④④口③ |----|
①口口口 |①-②-|
口②口口 |--③-|
口口口口 |--④-|
16
③③口口 |--①-|
口口口① |--②-|
口口②口 |--③-|
④④④④ |--④-|
17
口口口口 |----|
②②②② |--①-|
①①①① |----|
口口口口 |--②-|
18
口④口口 |----|
口③口口 |--①-|
口口②口 |②-③-|
口①口口 |--④-|
19
口④口口 |--①-|
口口①口 |--②-|
口②口口 |--③-|
口口③口 |--④-|
20
口口口口 |--①-|
④口①口 |--②-|
口②口口 |--③-|
口口③口 |--④-|
21
④②①口 |----|
口口③口 |①-②-|
口口口口 |--③-|
口口口口 |--④-|
22
口口④④ |--①-|
口①口口 |--②-|
②口口口 |--③-|
口③口口 |--④-|
23
口口口口 |----|
口③口口 |--①-|
口②口口 |----|
口①①口 |②-③-|
24
口口口口 |----|
口口②口 |①-②-|
口口①口 |--③-|
③口口③ |----|
25
①口口① |①---|
口口口口 |----|
口口口口 |②---|
口②②口 |----|
26
口口口口 |①---|
口②②口 |----|
口①①口 |②---|
口口口口 |----|
27
口①①口 |①---|
口口口口 |②---|
②口口口
口口口口

口⑤口口
口口口口
口口③④ |③-④-|
口口口口 |--⑤-|
28
口口口口 |①-②-|
口口①口 |③-④-|
口②口口
口④③口

口⑤口口
口口⑥口
口口口口 |----|
口口口口 |⑤-⑥-|
29
口口⑦口 |①-②-|
⑥口口④ |③-④-|
⑤①口③ |--⑤-|
口口②口 |⑥-⑦-|
30
口口口口 |----|
口口口口 |----|
口口口② |----|
口口口① |①-②-|
31
口口口口 |----|
口口口口 |①-②-|
口④②口 |----|
口③①口 |③-④-|
32
口口③口 |----|
口④口口 |①-②-|
②口⑤口 |--③-|
①口口口 |④-⑤-|
33
①口口② |--①-|
③口口④ |②-③-|
⑤口口⑥ |④-⑤-|
口⑦口口 |⑥-⑦-|
34
口⑥口口 |①-②-|
口④⑤口 |③-④-|
口②③口 |⑤-⑥-|
口口①口 |----|
35
口③口口 |----|
①口④② |①-②-|
口⑤口口 |--③-|
口口口口 |④-⑤-|
36
②口口口 |①-②-|
口口口③ |③-④-|
④口口口
口口①口

口口口口
口口口口
口口口口 |----|
口⑥⑤口 |⑤-⑥-|
37
口口口⑦ |①-②-|
⑥④③口 |③-④-|
口②①⑤ |--⑤-|
口口口口 |⑥-⑦-|
38
①口口口 |----|
口口口口 |----|
口口口口 |----|
口口口口 |--①-|
39
口②④口 |①---|
①③⑤口 |②-③-|
口口口口 |----|
口口口口 |④-⑤-|
40
口口口① |--①-|
口③口② |②---|
口口④口 |--③-|
口⑤口口 |④-⑤-|
41
口口口口 |----|
口口口口 |----|
口口口口 |①---|
①口口① |----|
42
口口口口 |①---|
②口口② |----|
①口口① |②---|
口口口口 |----|
43
②①①口 |①---|
③口口口 |----|
口口口口 |----|
口口口口 |②-③-|
44
口口口① |----|
口⑤口② |①-②-|
口口④口 |--③-|
口③口口 |④-⑤-|
45
口口①口 |----|
口口口② |----|
口口口口 |----|
口口口口 |①-②-|
46
口口口口 |----|
口①口口 |①-②-|
②口③口 |--③-|
口口口④ |④---|
47
口口口口 |----|
②口口口 |----|
①口口口 |----|
口口口口 |①-②-|
48
口口口口 |----|
口口口② |①-②-|
口口口① |----|
口③③口 |③---|
49
②口口② |①---|
口口口口 |----|
口①①口 |②---|
口口口口 |----|
50
口口口口 |①---|
口①①口 |----|
口口口口 |②---|
口②②口 |----|
51
①⑤②④ |----|
口③口口 |①-②-|
口口口口 |③---|
口口口口 |④-⑤-|
52
口口⑤口 |①-②-|
口⑥①口 |③-④-|
口②口口 |----|
口④③口 |⑤-⑥-|
53
⑤口口⑤ |①---|
④口口④ |②-③-|
③口①③ |--④-|
口②口口 |--⑤-|
54
口①口口 |----|
口口②口 |----|
口口口口 |①-②-|
口口口口 |----|
55
口口口口 |①---|
①口口口 |②---|
口②②口
口口口①

口口口口
④口口③
口口口口 |③---|
③口口④ |④---|
56
⑤⑤⑤⑤ |①---|
口④④② |②---|
口①①口 |③-④-|
②③③口 |--⑤-|
57
口口口口 |--①-|
③③④④ |②---|
①①②② |③-④-|
口⑤⑤口 |--⑤-|
58
口①②⑦ |--①-|
口口⑥③ |②-③-|
口⑤口口 |④-⑤-|
④口口口 |⑥-⑦-|
59
①①⑤⑤ |----|
口口口② |①---|
口口③口 |②-③-|
口④口口 |④-⑤-|
60
⑤口口口 |--①-|
口④口口 |----|
①①③口 |②-③-|
口口口② |④-⑤-|
61
⑤⑤①① |----|
②口口口 |①---|
口③口口 |②-③-|
口口④口 |④-⑤-|
62
口口口口 |--①-|
口③②口 |----|
口口①① |②-③-|
口⑤④口 |④-⑤-|
63
②口口① |--①-|
口⑥⑤口 |--②-|
口④③口 |③-④-|
口口口口 |⑤-⑥-|
64
③口口口 |--①-|
口口口口 |--②-|
口②②口 |----|
口①①口 |--③-|
65
口①③② |①---|
⑤口口⑤ |②-③-|
口口口口 |--④-|
口④④口 |--⑤-|
66
口口口④ |----|
口口③口 |----|
口②口口 |①-②-|
①口口口 |③-④-|
67
①①⑤⑤ |----|
口口口② |①---|
口口③口 |②-③-|
口④口口 |④-⑤-|
68
⑤口口口 |--①-|
口④口口 |----|
①①③口 |②-③-|
口口口② |④-⑤-|
69
⑤⑤①① |----|
②口口口 |①---|
口③口口 |②-③-|
口口④口 |④-⑤-|
70
口口口口 |--①-|
口③②口 |----|
口口①① |②-③-|
口⑤④口 |④-⑤-|
71
②口口① |--①-|
口⑥⑤口 |--②-|
口④③口 |③-④-|
口口口口 |⑤-⑥-|
72
口口口口 |--①-|
口口口口 |--②-|
口④③口 |--③-|
②口口① |④---|
73
④口口④ |①---|
③口口③ |②---|
②口口② |③---|
口①①口 |④---|
74
口①口口 |--①-|
口口②口 |②-③-|
口③口口
口口口口

口⑦口口
口口口口
⑤口口⑥ |④-⑤-|
口口④口 |⑥-⑦-|
75
口④口口 |--①-|
口口①口 |--②-|
口②口口 |--③-|
口口③口 |--④-|
76
口口口口 |--①-|
④口①口 |--②-|
口②口口 |--③-|
口口③口 |--④-|
77
④②①口 |----|
口口③口 |①-②-|
口口口口 |--③-|
口口口口 |--④-|
78
口口④④ |--①-|
口①口口 |--②-|
②口口口 |--③-|
口③口口 |--④-|
79
①①口口 |----|
口②③口 |--①-|
口口口口 |----|
口口口口 |②-③-|
80
口口口口 |----|
口口口口 |①-②-|
口①②口 |--③-|
口③③口 |----|
81
口①①口 |①---|
②口口② |----|
口口口口 |②---|
口口口口 |----|
82
口口口口 |①---|
口口口口 |----|
①口口① |②---|
口②②口 |----|
83
口口口口 |①---|
口①①口 |----|
口①①口 |----|
口口口口 |----|

不確定度: 0

最終更新:2015年12月18日 16:16