glacia
DJ TOTTO

BASIC

Level: 6
BPM: 186
Notes: 494

1
口口口口 |----|
口口口口 |----|
口①①口 |----|
口口口口 |①---|
2
口口口口 |①---|
①①①① |----|
口口口口 |----|
口口口口 |----|
3
口口口口 |----|
口口口口 |----|
口口口口 |----|
口口口口 |----|
4
口口口口 |①---|
口口口口 |----|
①口口口 |----|
①口口口 |----|
5
口口口口 |----|
口口口口 |----|
口口口口 |----|
口口口口 |----|
6
口口口口 |①---|
口口口口 |----|
口口口① |----|
口口口① |----|
7
口口口口 |----|
口口口口 |----|
口口口口 |----|
口口口口 |----|
8
口口口口 |①---|
口口口口 |----|
口①①口 |----|
口口口口 |----|
9
口口口口 |①---|
口①①口 |----|
口②②口 |----|
口口口口 |②---|
10
①①①① |①---|
口②③④ |②---|
口口口口 |③---|
口口口口 |④---|
11
口口口口 |①---|
口口口口 |②---|
①②③④ |③---|
口口口口 |④---|
12
口口口口 |①---|
①②③④ |②---|
口口口口 |③---|
口口口口 |④---|
13
口口口口 |①---|
口口口口 |②---|
①②③④ |③---|
口口口口 |④---|
14
口口口口 |①---|
口口口口 |②---|
口口口口 |③---|
①②③④ |④---|
15
口口口口 |①---|
口口口口 |②---|
①②③④ |③---|
口口口口 |④---|
16
口口口口 |①---|
①②③④ |②---|
口口口口 |③---|
口口口口 |④---|
17
①②③④ |①---|
口口口口 |②---|
口口口口 |③---|
口口口口 |④---|
18
口口口口 |①---|
口口口口 |----|
口①口口 |----|
口口口口 |----|
19
口口①① |①---|
口②②口 |②---|
③③口口 |③---|
口④④口 |④---|
20
口口口④ |①-②-|
③口⑦⑦ |③-④-|
⑤口口② |⑤-⑥-|
①口⑥⑥ |--⑦-|
21
口口口口 |--①-|
①①口口 |--②-|
口③③口 |----|
②②口口 |③---|
22
④③②① |①-②-|
口⑥⑦⑧ |③-④-|
口口口口 |⑤-⑥-|
口口口⑤ |⑦-⑧-|
23
口口口口 |--①-|
口口口口 |--②-|
⑤④③② |③-④-|
①①口口 |⑤---|
24
口③②① |--①-|
④⑤⑥口 |②-③-|
口口口⑦ |④-⑤-|
口口口口 |⑥-⑦-|
25
口口口口 |①-②-|
④⑤⑥⑦ |③---|
口②①口 |④-⑤-|
口口③口 |⑥-⑦-|
26
口口⑥⑥ |--①-|
⑤口口口 |②-③-|
口①④口 |④-⑤-|
口③②口 |--⑥-|
27
①⑥⑥口 |--①-|
口⑤⑤② |--②-|
口④④口 |③-④-|
口③③口 |⑤-⑥-|
28
口口口④ |①-②-|
③口⑦⑦ |③-④-|
⑤口口② |⑤-⑥-|
①口⑥⑥ |--⑦-|
29
口口口口 |--①-|
①①口口 |--②-|
口③③口 |----|
②②口口 |③---|
30
④③②① |①-②-|
口⑥⑦⑧ |③-④-|
口口口口 |⑤-⑥-|
口口口⑤ |⑦-⑧-|
31
口口口口 |--①-|
口口口口 |--②-|
⑤④③② |③-④-|
①①口口 |⑤---|
32
口③②① |--①-|
④⑤⑥口 |②-③-|
口口口⑦ |④-⑤-|
口口口口 |⑥-⑦-|
33
口口口口 |①-②-|
④⑤⑥⑦ |③---|
口②①口 |④-⑤-|
口口③口 |⑥-⑦-|
34
①口口② |--①-|
⑦口口口 |②-③-|
口③④口 |④-⑤-|
⑤口口⑥ |⑥-⑦-|
35
口②①口 |--①-|
口④③口 |②-③-|
口⑥⑤口 |④-⑤-|
口口⑦口 |⑥-⑦-|
36
②口口口 |①---|
口口口口 |----|
口口口口 |②---|
口①口口 |----|
37
口口口口 |①---|
口①口口 |----|
口口②口 |②---|
口口口口 |----|
38
口口口口 |①---|
口口口口 |----|
口口口口 |----|
口口口① |----|
39
口口口口 |----|
口口口口 |----|
口口口口 |----|
口口口口 |----|
40
口口口① |----|
口口口口 |----|
口口口口 |①---|
口口口口 |----|
41
口口口口 |①---|
口口①口 |----|
口②口口 |②---|
口口口口 |----|
42
口②口口 |①---|
口口口口 |----|
口口口口 |----|
①口口口 |--②-|
43
口口口口 |--①-|
口③②① |②-③-|
口口口口 |----|
口口口口 |----|
44
①①⑤⑤ |①-②-|
⑥⑥②② |③-④-|
③③⑦⑦ |--⑤-|
口口④④ |⑥-⑦-|
45
口口口口 |①---|
口口口口 |----|
口口口口
①①口口

口口口口
口口口口
口口口口 |----|
②②口口 |--②-|
46
④④①① |①-②-|
②②⑤⑤ |③---|
⑥⑥③③ |④-⑤-|
口口⑦⑦ |⑥-⑦-|
47
口口口口 |----|
口口口口 |----|
口口口口 |----|
口口口口 |----|
48
⑤⑤①① |①-②-|
②②⑥⑥ |③-④-|
⑦⑦③③ |--⑤-|
④④口口 |⑥-⑦-|
49
口口口口 |①---|
口口口口 |----|
口口口口
口口①①

口口口口
口口口口
口口口口 |----|
口口②② |--②-|
50
①①④④ |①-②-|
⑤⑤②② |③---|
③③⑥⑥ |④-⑤-|
⑦⑦口口 |⑥-⑦-|
51
口口口口 |----|
口口口口 |----|
口口口口 |----|
口口口口 |----|
52
口口口口 |①---|
①口口① |----|
口①①口 |----|
口口口口 |----|
53
口口口口 |----|
口口口口 |----|
口口口口 |----|
口口口口 |----|
54
①口口④ |①-②-|
口口③口 |③-④-|
口②口口
口口口口

⑦口口口
口⑥口口
口口⑤口 |--⑤-|
口口口口 |⑥-⑦-|
55
口②①口 |--①-|
口口③口 |--②-|
口④口口 |③-④-|
口⑥⑤口 |⑤-⑥-|
56
口口口口 |--①-|
口③⑥口 |②-③-|
口⑤②口 |--④-|
④口口① |⑤-⑥-|
57
①口口口 |--①-|
口⑦口② |②-③-|
③口⑥口 |④-⑤-|
口⑤口④ |⑥-⑦-|
58
口⑦⑦口 |--①-|
口口口⑥ |②-③-|
⑤③口口 |④-⑤-|
①口②④ |⑥-⑦-|
59
②口口② |--①-|
口③口口 |--②-|
口口④口 |--③-|
⑤①①口 |④-⑤-|
60
口口口口 |①-②-|
口⑤②① |③-④-|
④③⑥口 |--⑤-|
口口口⑦ |⑥-⑦-|
61
⑦口口口 |--①-|
⑤口口⑥ |②-③-|
③口口④ |④-⑤-|
口①②口 |⑥-⑦-|
62
口口④口 |--①-|
口⑤①口 |②-③-|
口②⑥口 |--④-|
口口口③ |⑤-⑥-|
63
口口口① |--①-|
口口②口 |--②-|
口口口口 |③-④-|
③④⑤⑥ |⑤-⑥-|
64
口⑤④口 |--①-|
口①⑥口 |②-③-|
口③②口 |--④-|
口口口口 |⑤-⑥-|
65
口口口口 |--①-|
口①⑥⑦ |②-③-|
④⑤②口 |④-⑤-|
口口口③ |⑥-⑦-|
66
口口口⑦ |--①-|
⑥③口口 |②-③-|
口口②⑤ |④-⑤-|
①④口口 |⑥-⑦-|
67
口口⑤口 |--①-|
口②口口 |--②-|
口口③口 |--③-|
口④口① |④-⑤-|
68
①①⑥口 |①-②-|
口⑤②② |③-④-|
③③⑤口 |--⑤-|
口⑥④④ |--⑥-|
69
①①口口 |--①-|
口④②② |②-③-|
③③④口 |----|
口口口口 |④---|
70
口口口④ |①-②-|
③口⑦⑦ |③-④-|
⑤口口② |⑤-⑥-|
①口⑥⑥ |--⑦-|
71
口口口口 |--①-|
①①口口 |--②-|
口③③口 |----|
②②口口 |③---|
72
④③②① |①-②-|
口⑥⑦⑧ |③-④-|
口口口口 |⑤-⑥-|
口口口⑤ |⑦-⑧-|
73
口口口口 |--①-|
口口口口 |--②-|
⑤④③② |③-④-|
①①口口 |⑤---|
74
口③②① |--①-|
④⑤⑥口 |②-③-|
口口口⑦ |④-⑤-|
口口口口 |⑥-⑦-|
75
口口口口 |①-②-|
④⑤⑥⑦ |③---|
口②①口 |④-⑤-|
口口③口 |⑥-⑦-|
76
口口⑥⑥ |--①-|
⑤口口口 |②-③-|
口①④口 |④-⑤-|
口③②口 |--⑥-|
77
①⑥⑥口 |--①-|
口⑤⑤② |--②-|
口④④口 |③-④-|
口③③口 |⑤-⑥-|
78
口口口④ |①-②-|
③口⑦⑦ |③-④-|
⑤口口② |⑤-⑥-|
①口⑥⑥ |--⑦-|
79
口口口口 |--①-|
①①口口 |--②-|
口③③口 |----|
②②口口 |③---|
80
④③②① |①-②-|
口⑥⑦⑧ |③-④-|
口口口口 |⑤-⑥-|
口口口⑤ |⑦-⑧-|
81
口口口口 |--①-|
口口口口 |--②-|
⑤④③② |③-④-|
①①口口 |⑤---|
82
口③②① |--①-|
④⑤⑥口 |②-③-|
口口口⑦ |④-⑤-|
口口口口 |⑥-⑦-|
83
口口口口 |①-②-|
④⑤⑥⑦ |③---|
口②①口 |④-⑤-|
口口③口 |⑥-⑦-|
84
①口口② |--①-|
⑦口口口 |②-③-|
口③④口 |④-⑤-|
⑤口口⑥ |⑥-⑦-|
85
口②①口 |--①-|
口④③口 |②-③-|
口⑥⑤口 |④-⑤-|
口口⑦口 |⑥-⑦-|
86
口口口口 |①---|
口口口口 |----|
口口口口 |----|
口①口口 |----|
87
口口口口 |----|
①①①① |----|
口①①口 |----|
口口口口 |--①-|

不確定度: 0

最終更新:2015年08月25日 00:19