ビビットストリーム
DJ TOTTO

EXTREME

Level: 9
BPM: 184
Notes: 667

1
口口口口 |----|
口口口口 |----|
口口口口 |----|
口口口口 |----|
2
口口口口 |----|
口口口口 |----|
口口口口 |----|
口口口口 |----|
3
①①口口 |①---|
①①①口 |----|
①①①口 |----|
口口口口 |----|
4
口口口口 |----|
口口口口 |----|
口口口口 |----|
口口口口 |----|
5
口①①口 |①---|
口①口口 |----|
口口①口 |----|
口①①口 |----|
6
口口口口 |----|
口口口口 |----|
口口口口 |----|
口口口口 |----|
7
口①口① |①---|
口口①口 |----|
口①口① |----|
口口①口 |----|
8
口口口口 |----|
口口口口 |----|
口口口口 |----|
口口口口 |----|
9
口口口口 |①---|
①口①口 |----|
①①①口 |----|
①①①口 |----|
10
口口口口 |----|
口口口口 |----|
口口口口 |----|
口口口口 |----|
11
②②口口 |①---|
①⑥③① |②---|
口④⑤口 |③-④-|
口①①口 |⑤-⑥-|
12
口②①口 |--①-|
②⑤口① |--②-|
口口④口 |--③-|
口③口口 |④-⑤-|
13
口口②口 |①---|
③口口⑥ |②---|
⑤口口④ |③-④-|
口口①① |⑤-⑥-|
14
②口口③ |--①-|
口②③口 |--②-|
口①④口 |--③-|
①口口④ |--④-|
15
口⑦②口 |①-②-|
⑤口口④ |③-④-|
③口口⑥ |⑤-⑥-|
①①⑧口 |⑦-⑧-|
16
①口口⑧ |①-②-|
口③⑥口 |③-④-|
口⑤④口 |⑤-⑥-|
⑦口口② |⑦-⑧-|
17
①③⑯⑭ |①②③④|
⑤⑦⑫⑩ |⑤⑥⑦⑧|
⑨⑪⑧⑥ |⑨⑩⑪⑫|
⑬⑮④② |⑬⑭⑮⑯|
18
①口口口 |①-②③|
口⑤口口 |④-⑤-|
口口口④
口口③②

⑪⑩⑨⑧
口口口⑥
⑦口口口 |⑥-⑦-|
口口口口 |⑧⑨⑩⑪|
19
口口⑤口 |①---|
③⑥②口 |②---|
口②口③ |③-④-|
口④①① |⑤-⑥-|
20
口②口① |--①-|
②⑤①口 |--②-|
口①④② |--③-|
①③②口 |④-⑤-|
21
口口②口 |----|
①口口④ |①---|
③⑤口① |②-③-|
口②口口 |④-⑤-|
22
①②口② |--①-|
③①③口 |--②-|
口④①④ |--③-|
口口口① |--④-|
23
①⑥②口 |①---|
口③⑤口 |②---|
④口③口 |③-④-|
口②口口 |⑤-⑥-|
24
①口②② |--①-|
①口⑤口 |--②-|
口④口① |--③-|
②②③① |④-⑤-|
25
①口口④ |①②③-|
口②口口 |④-⑤-|
口口③口
⑤口口口

⑧⑥口口
口口⑧口
口⑧口口 |⑥-⑦-|
口口⑦⑧ |--⑧-|
26
口②①⑥ |----|
口口口③ |--①②|
口口④口 |③④⑤-|
⑦⑤口口 |⑥-⑦-|
27
口口⑤口 |①---|
③⑥②口 |②---|
口②口③ |③-④-|
口④①① |⑤-⑥-|
28
口②口① |--①-|
②⑤①口 |--②-|
口①④② |--③-|
①③②口 |④-⑤-|
29
口口②口 |----|
①口口④ |①---|
③⑤口① |②-③-|
口②口口 |④-⑤-|
30
①②口② |--①-|
③①③口 |--②-|
口④①④ |--③-|
口口口① |--④-|
31
①⑥②口 |①---|
口③⑤口 |②---|
④口③口 |③-④-|
口②口口 |⑤-⑥-|
32
①口②② |--①-|
①口⑤口 |--②-|
口④口① |--③-|
②②③① |④-⑤-|
33
①①④口 |①---|
口口口④ |----|
口③口口 |--②-|
②口口口 |③-④-|
34
口③口口 |--①-|
口①④口 |--②-|
②⑤①口 |③-④-|
口②⑥口 |⑤-⑥-|
35
④口④口 |①---|
③口口口 |②---|
②口口④ |③---|
①口口口 |④---|
36
口⑤口② |①-②-|
口④④④ |③---|
口③②口 |④---|
口①⑤⑤ |⑤---|
37
⑤口③① |①---|
④口口⑤ |②-③-|
②口③① |④---|
①口口⑤ |⑤---|
38
⑤⑤④④ |①-②-|
④④②口 |③---|
口③⑤⑤ |④---|
口①②口 |⑤---|
39
⑤口口⑤ |①---|
④口③① |②-③-|
②口⑤口 |④---|
①口①③ |⑤---|
40
口⑤②口 |①-②-|
口④④④ |③---|
口③口② |④---|
口①⑤⑤ |⑤---|
41
⑤口③① |①---|
④口口⑤ |②-③-|
②口③① |④---|
①口口⑤ |⑤---|
42
口口⑥⑦ |①②③④|
口⑤⑧⑨ |⑤---|
④③⑩口 |⑥⑦⑧⑨|
②①口口 |⑩---|
43
口⑤口⑤ |①---|
①③口④ |②-③-|
⑤口口② |④---|
③①口① |⑤---|
44
②口⑤口 |①-②-|
④④④口 |③---|
口②③口 |④---|
⑤⑤①口 |⑤---|
45
①③口⑤ |①---|
⑤口口④ |②-③-|
①③口② |④---|
⑤口口① |⑤---|
46
④④⑤⑤ |①-②-|
口②④④ |③---|
⑤⑤③口 |④---|
口②①口 |⑤---|
47
⑤口口⑤ |①---|
①③口④ |②-③-|
口⑤口② |④---|
③①口① |⑤---|
48
口②⑤口 |①-②-|
④④④口 |③---|
②口③口 |④---|
⑤⑤①口 |⑤---|
49
①③口⑤ |①---|
⑤口口④ |②-③-|
①③口② |④---|
⑤口口① |⑤---|
50
①口口口 |①-②③|
口⑤口口 |④-⑤-|
口口口④
口口③②

⑪⑩⑨⑧
口口口⑥
⑦口口口 |⑥-⑦-|
口口口口 |⑧⑨⑩⑪|
51
口口口口 |①---|
口口③口 |--②-|
口口口③ |③---|
④②①口 |④---|
52
口口④⑤ |①-②-|
口口⑥③ |③-④-|
口口②⑦ |⑤-⑥-|
口口口① |⑦---|
53
口口口口 |①---|
口③口口 |--②-|
③口口口 |③---|
口①②④ |④---|
54
①③⑤⑦ |①-②-|
②④⑥⑧ |③-④-|
口口口口 |⑤-⑥-|
口口口口 |⑦-⑧-|
55
口口口口 |①---|
口③口口 |--②-|
③口口口 |③---|
口①②④ |④---|
56
口①口口 |①---|
④口口⑤ |②-③-|
口③口口 |④---|
②口口口 |⑤---|
57
口口口口 |①---|
口口③口 |--②-|
口口口③ |③---|
④②①口 |④---|
58
口①口口 |①-②③|
口口口⑤ |④-⑤-|
口口口口
口④③②

⑧⑨⑩⑪
⑥口口口
口口⑦口 |⑥-⑦-|
口口口口 |⑧⑨⑩⑪|
59
口口口口 |①---|
口③口口 |--②-|
③口口口 |③---|
①口②④ |④---|
60
⑤④口口 |①-②-|
③⑥口口 |③-④-|
⑦②口口 |⑤-⑥-|
①口口口 |⑦---|
61
口口口口 |①---|
口口③口 |--②-|
口口口③ |③---|
④②①口 |④---|
62
⑦⑤③① |①-②-|
⑧⑥④② |③-④-|
口口口口 |⑤-⑥-|
口口口口 |⑦-⑧-|
63
口口口口 |①---|
口口③口 |--②-|
口口口③ |③---|
④②①口 |④---|
64
口口①口 |①---|
⑤口口④ |②-③-|
口口③口 |④---|
口口口② |⑤---|
65
⑤口口口 |①---|
⑤③口口 |--②-|
③口口口 |③---|
口①②④ |④-⑤-|
66
⑧⑥口① |--①-|
口⑧口① |②③④⑤|
口②③口 |⑥-⑦-|
⑦④⑤口 |⑧---|
67
口口②口 |①---|
口口口口 |②---|
口口口口
口口口①

口口口口
③口⑤口
口口口口 |③-④-|
口④口⑥ |⑤-⑥-|
68
口口口② |--①-|
口口⑤口 |--②-|
口④①口 |--③-|
③口口口 |④-⑤-|
69
②⑤口③ |①---|
口口口口 |②---|
⑥口④口 |③-④-|
口①①口 |⑤-⑥-|
70
②口口③ |--①-|
口口口口 |--②-|
口口口① |--③-|
口口口④ |--④-|
71
口②口⑥ |①---|
③口⑤口 |②---|
口④口口 |③-④-|
口①①口 |⑤-⑥-|
72
口②③口 |①-②-|
口⑤口口 |--③-|
⑥口④口 |--④-|
口①①口 |⑤-⑥-|
73
⑤⑤⑤④ |①②③-|
⑦口口口 |④---|
口口⑥口 |⑤-⑥-|
口③②① |--⑦-|
74
③口⑨④ |①---|
口口⑧口 |②-③④|
口⑤⑥② |⑤⑥⑦-|
①⑦口① |⑧-⑨-|
75
口④口口 |①---|
口②口② |②---|
②③⑥③ |③-④-|
①⑤①⑤ |⑤-⑥-|
76
⑧口④② |①-②-|
口口②④ |③-④-|
③⑤⑦口 |⑤-⑥-|
①⑦口⑥ |⑦-⑧-|
77
口口③口 |①---|
口②⑥② |②---|
②③口⑤ |③-④-|
①⑤④口 |⑤-⑥-|
78
口④口④ |①-②-|
口⑥口⑥ |③-④-|
③⑤②口 |⑤-⑥-|
①⑦⑧⑧ |⑦-⑧-|
79
②⑥②③ |①---|
口口①口 |②---|
②③④⑤ |③-④-|
①⑤口口 |⑤-⑥-|
80
口口②④ |①-②-|
口⑧④② |③-④-|
③⑤⑦口 |⑤-⑥-|
①⑦⑥口 |⑦-⑧-|
81
⑥口①口 |①---|
口口口① |②---|
②③⑤口 |③-④-|
①口口④ |⑤-⑥-|
82
口⑤①① |①-②-|
口⑦⑥口 |③-④-|
④口口口 |⑤-⑥-|
②口③⑧ |⑦-⑧-|
83
口口口口 |①---|
口口口口 |----|
口口口口 |----|
①口口口 |----|
84
口口口口 |----|
口口口口 |----|
口口口口 |----|
口口口口 |----|
85
①③口⑦ |①-②-|
口⑥⑤口 |③-④-|
口口口口 |⑤-⑥-|
口口④② |--⑦-|
86
口口口口 |--①-|
①口口① |②-③-|
②②②② |----|
③③③③ |----|

不確定度: 0

最終更新:2016年04月18日 01:29