チョコレートスマイル
日向美ビタースイーツ♪ & ここなつ

EXTREME

Level: 9
BPM: 196
Notes: 780

1
口口口口 |----|
口口口口 |----|
口口口口 |----|
口口口口 |----|
2
①口④⑤ |①---|
口②口口 |②---|
口口③口 |③-④-|
口口口口 |--⑤-|
3
口⑤⑤口 |--①-|
①口口② |②-③-|
⑤口口⑤ |④-⑤-|
③口口④ |----|
4
⑤④口① |①---|
口口②口 |②---|
口③口口 |③-④-|
口口口口 |--⑤-|
5
口⑤⑤③ |--①-|
口口口② |②-③-|
口口口① |--④-|
口④④口 |⑤---|
6
①口④⑤ |①---|
口②口口 |②---|
口口③口 |③-④-|
口口口口 |--⑤-|
7
④口口④ |----|
②口口③ |①---|
口②③口 |②-③-|
①口口① |--④-|
8
口口口⑦ |--①-|
口口⑥口 |②-③-|
口⑤口口 |④-⑤-|
④③②① |⑥-⑦-|
9
口③③口 |--①-|
②口口口 |--②-|
②口口① |③---|
口口①口 |----|
10
①口口口 |①---|
口④口口 |②---|
口口⑤口 |③---|
③口口② |④-⑤-|
11
口口口口 |----|
③口口① |①---|
②口口口 |②---|
口口口口 |③---|
12
①口口口 |①---|
口④⑤口 |②---|
口②口口 |③---|
口③口口 |④-⑤-|
13
口口口口 |①---|
口④口① |②---|
口口③口 |③---|
口口口② |④---|
14
①口口口 |①---|
口口口② |②---|
口口口口
口口口口

⑤⑤口口
口口口口
口口口口 |③---|
④口③口 |④-⑤-|
15
口口④④ |----|
②口口口 |①---|
口口口① |②-③-|
口口③口 |--④-|
16
①口口口 |----|
口②口口 |①---|
口口③口 |②---|
口口口口 |③---|
17
②口口② |①---|
口口口口 |--②-|
口口口口
口口口①

口口口口
③口口④
口口口口 |----|
⑤口口⑥ |③④⑤⑥|
18
③①①② |①---|
口口④口 |②---|
口⑤口口 |③---|
口口口口 |④-⑤-|
19
口口口口 |----|
①口口③ |①---|
口口口② |②---|
口口口口 |③---|
20
口⑤⑤① |①---|
口口口口 |②---|
③②口口 |③---|
口口口④ |④-⑤-|
21
口口口口 |----|
口口③口 |①---|
口②口口 |②---|
①口口口 |③---|
22
口口口① |①---|
②口口口 |②---|
口口口口
口口口口

口口⑤⑤
口口口口
口口口口 |③---|
口③口④ |④-⑤-|
23
④④口口 |----|
口口口② |①---|
①口口口 |②-③-|
口口③口 |--④-|
24
口口口① |----|
口口②口 |①---|
口③口口 |②---|
口口口口 |③---|
25
口③口⑤ |①---|
③口口④ |②-③-|
口口口② |④---|
①口口① |⑤---|
26
口⑤⑤口 |--①-|
④①②④ |②-③-|
口口口口 |④-⑤-|
①③③② |----|
27
①⑤口① |①---|
⑥口②⑦ |②-③-|
口口口③ |④-⑤-|
口④口口 |⑥-⑦-|
28
④④口① |--①-|
口口②口 |②-③-|
口③口口 |--④-|
⑤⑤口口 |⑤---|
29
口口口① |①---|
口④口口 |②-③-|
口口⑤② |--④-|
口口③⑥ |⑤-⑥-|
30
①口③③ |--①-|
②口口口 |--②-|
③口口口 |--③-|
口口④④ |④---|
31
口①口口 |①---|
②口口口 |②-③-|
口口③口
口口口口

口⑥口④
口口口口
口⑥口⑥ |④-⑤-|
口口⑤口 |--⑥-|
32
①口④④ |--①-|
②口口口 |--②-|
①口口口 |--③-|
②口③③ |④---|
33
③④⑤⑥ |①---|
口口①⑤ |②---|
②口口④ |③-④-|
口②口③ |⑤-⑥-|
34
①①①口 |----|
口口口口 |----|
口口口口 |--①-|
口②②② |②---|
35
口口口② |①---|
①③口① |----|
①④③① |②---|
④口口口 |③-④-|
36
口④口口 |----|
④③口口 |----|
口口②口 |①-②-|
口口口① |③-④-|
37
口④①口 |----|
④口口① |①---|
②口口③ |②-③-|
口②③④ |--④-|
38
③口①② |----|
口④④① |①---|
②口口③ |②-③-|
①②③口 |--④-|
39
⑦①①⑦ |--①-|
②口口② |②-③-|
⑥③③⑥ |④-⑤-|
④⑤⑤④ |⑥-⑦-|
40
口①①口 |----|
②口口③ |----|
口⑥⑦口 |①-②③|
④口口⑤ |④⑤⑥⑦|
41
①⑤⑤① |①---|
口⑤②口 |②---|
⑤⑤口③ |③---|
口④④口 |④-⑤-|
42
④口口口 |----|
①口口口 |--①-|
口口②口 |②-③-|
③口口④ |--④-|
43
口口④③ |----|
②口口① |①---|
②口口① |②---|
③④口口 |③-④-|
44
③①口口 |①---|
口②②④ |②---|
③口口口 |③---|
口口①④ |④---|
45
口口②③ |①-②-|
①④⑦口 |③---|
口口⑤⑥ |④-⑤-|
①④⑦口 |⑥-⑦-|
46
③①①③ |----|
口④④口 |--①-|
口口口口 |②-③-|
②口口② |--④-|
47
口②②口 |①---|
④口口④ |②---|
①③③① |③---|
④②②④ |④---|
48
③口口① |①-②-|
⑤②②⑥ |③-④-|
③口口① |--⑤-|
口④④口 |⑥---|
49
口①①① |①---|
口①口口 |②---|
口①①①
口口口②

④口⑤⑤
③口⑤口
③⑤⑤口 |③---|
③③③口 |④-⑤-|
50
口④口口 |----|
③口口③ |--①-|
②口口② |②-③-|
①口④① |--④-|
51
口口①② |----|
口④③口 |①---|
口④③口 |②---|
②①口口 |③-④-|
52
④②②口 |①---|
①口口⑤ |②---|
①口口③ |③-④-|
⑤⑤口② |⑤---|
53
⑦②⑦口 |①-②-|
④③④⑤ |③---|
①口①⑥ |④-⑤-|
口口口口 |⑥-⑦-|
54
口口口④ |----|
口③③口 |--①-|
口②②口 |②-③-|
④①①口 |--④-|
55
③②①口 |----|
②口口口 |①---|
①口口口 |②---|
口口口③ |③---|
56
③②口② |①---|
④②②② |--②-|
⑤口②口 |--③-|
①①①口 |④-⑤-|
57
口⑥⑤④ |①---|
口口口口 |②---|
口口③② |③-④-|
①口⑤① |⑤-⑥-|
58
④⑤⑥口 |①---|
口口口③ |②---|
口口口② |③-④-|
口口口① |⑤-⑥-|
59
口口口① |①---|
口口口⑥ |②---|
②③口⑤ |③-④-|
①⑤口④ |⑤-⑥-|
60
⑤口口① |①---|
③口口口 |②---|
②口口口 |③-④-|
①⑥⑤④ |⑤-⑥-|
61
④口⑤① |①---|
⑤口③② |②---|
⑥口口口 |③-④-|
①口口口 |⑤-⑥-|
62
口⑥⑤① |①---|
口口④② |②---|
口④口③ |③-④-|
①⑤⑥口 |⑤-⑥-|
63
①口口② |①---|
口③口口 |②-③-|
口口③口
②口口①

口⑥⑥口
④口口⑤
④口口⑤ |--④-|
口口口⑥ |⑤-⑥-|
64
⑤口口⑤ |①-②-|
⑥口口⑥ |③-④-|
⑦④④⑦ |--⑤-|
③②①口 |⑥-⑦-|
65
④⑤口口 |①---|
③口①口 |--②-|
口口口口 |--③-|
口②口口 |④-⑤-|
66
口口口口 |--①-|
口⑤口口 |②-③-|
口口口③ |--④-|
口④①② |--⑤-|
67
③②②③ |--①-|
②口口② |--②-|
③口口③ |----|
①口口① |③---|
68
口口口口 |①-②-|
④口口口 |--③-|
口①②口 |--④-|
③口口口 |----|
69
口③③口 |①-②-|
④①②④ |--③-|
③口口③ |--④-|
口④④口 |----|
70
口口口⑤ |①---|
口①口口 |②---|
口口②③ |③---|
④口③口 |④-⑤-|
71
④口③④ |----|
口口②口 |--①-|
口口①口 |②-③-|
口口口口 |--④-|
72
口④③口 |----|
口口口口 |①---|
口①口口 |②---|
②口口口 |③-④-|
73
①口口口 |①---|
口②口口 |②---|
口口③口 |③---|
口口口④ |④---|
74
口③口口 |①---|
口②③口 |----|
口①②③ |②---|
①口口口 |--③-|
75
①口口口 |----|
②口口口 |--①-|
③口口口 |②-③-|
口口口④ |--④-|
76
口口口① |①---|
口口②口 |②---|
口③口口 |③---|
④口口口 |④---|
77
④②②⑤ |①-②-|
口③⑥④ |③-④-|
口⑦②④ |--⑤⑥|
口口口① |⑦---|
78
口①①口 |①---|
①②口口 |②---|
①口口口
口①①口

⑤⑤口③
⑤口④③
口⑤④③ |③---|
⑤⑤口③ |④-⑤-|
79
口口口口 |----|
口口口① |--①-|
④口口② |②-③-|
口④口③ |--④-|
80
口口③① |----|
口口①③ |①---|
口②口口 |②---|
②口口口 |③---|
81
③①④② |①---|
①口口④ |②---|
②口口③ |③---|
④②③① |④---|
82
口口口⑥ |①-②-|
①口①⑤ |③---|
④③④口 |④-⑤-|
⑦②⑦口 |⑥-⑦-|
83
①③③口 |----|
③②④口 |--①-|
③④②口 |②-③-|
口口口① |--④-|
84
②口口④ |①---|
口③口① |②---|
口口③⑤ |③---|
④①⑤② |④-⑤-|
85
②口②③ |①---|
②②②④ |--②-|
①②口⑤ |--③-|
口①口口 |④-⑤-|
86
口①口口 |①---|
口②口口 |②---|
口口口口
口口口①

⑤口口口
③口口口
口口口口 |③-④-|
口④⑤⑥ |⑤-⑥-|
87
口①②③ |①---|
⑥口口口 |②---|
⑤口口口 |③-④-|
④口口口 |⑤-⑥-|
88
①⑥⑤④ |①---|
口口口口 |②---|
口口③② |③-④-|
口口⑤① |⑤-⑥-|
89
①口口⑤ |①---|
口口口③ |②---|
口口口② |③-④-|
④⑤⑥① |⑤-⑥-|
90
⑤③口④ |①---|
①②口⑤ |②---|
口口口⑥ |③-④-|
口口口① |⑤-⑥-|
91
口口口口 |①---|
①②③口 |②---|
口口口口 |③-④-|
④⑤⑥① |⑤-⑥-|
92
口①①口 |①---|
③④⑤⑥ |②-③-|
⑥⑤④② |--④-|
口口口① |⑤-⑥-|
93
④③②① |①-②-|
口⑤⑥⑦ |③-④-|
口⑤⑥⑦ |--⑤-|
①②③④ |⑥-⑦-|
94
②口口① |①---|
⑤口⑤口 |②---|
口口口口 |③-④-|
①③④② |--⑤-|
95
口①①口 |----|
口①口① |----|
①①口口 |--①-|
①①口口 |----|
96
①口口口 |①---|
①口②口 |②---|
口口②口
口口口口

⑤口口⑤
口口口口
口口口口 |③-④-|
③口口④ |--⑤-|
97
口⑤①口 |--①-|
⑤②①口 |②-③-|
③②口④ |--④-|
③口④口 |⑤---|
98
②⑤⑤③ |①---|
口口③① |②---|
②④口口 |③-④-|
口口④① |--⑤-|
99
④④④口 |----|
口口口① |①---|
③口③① |②-③-|
②口②口 |--④-|
100
⑦口口① |--①-|
⑥口②口 |②-③-|
⑤③口口 |④-⑤-|
④口口口 |⑥-⑦-|
101
口②③口 |--①-|
口②口③ |--②-|
③②口口 |③---|
③②口① |----|

不確定度: 0

最終更新:2016年04月18日 01:27