Far east nightbird
猫叉Master

EXTREME

Level: 10
BPM: 180
Notes: 708

1
口口口口 |----|
口口口口 |----|
口口口口 |----|
口口口口 |----|
2
①口口② |----|
口口口口 |----|
口口口口 |----|
口口口口 |①-②-|
3
⑤口口⑥ |①---|
②口口③ |②-③-|
口①①口 |--④-|
口④口口 |⑤-⑥-|
4
⑤口口⑥ |①---|
②口口③ |②-③-|
口①①口 |--④-|
口④口口 |⑤-⑥-|
5
⑤口口⑥ |①---|
②口口③ |②-③-|
口①①口 |--④-|
口④口口 |⑤-⑥-|
6
⑥口口⑦ |①-②-|
③①②④ |③-④-|
口口口口 |--⑤-|
口⑤口口 |⑥-⑦-|
7
④口口⑤ |----|
①口口② |①-②-|
口口口口 |--③-|
口口③口 |④-⑤-|
8
④口口⑤ |----|
①口口② |①-②-|
口口口口 |--③-|
口③口口 |④-⑤-|
9
口口口口 |①-②-|
③④①④ |③-④-|
口口②口
口口③口

⑦口⑦⑧
口口⑧口
口⑤口口 |⑤-⑥-|
口⑥口口 |⑦-⑧-|
10
口②口口 |①-②-|
③③口④ |③-④-|
⑦④①⑧ |⑤-⑥-|
⑤口口⑥ |⑦-⑧-|
11
①⑥⑦① |①-②③|
⑤⑧⑨⑤ |④-⑤-|
口④口口 |⑥⑦⑧⑨|
⑩②③⑩ |⑩---|
12
①口口① |①---|
口口口⑦ |②-③-|
②③④⑥ |④-⑤-|
口口口⑤ |⑥-⑦-|
13
口①①口 |①---|
口④③口 |②-③-|
②口口⑤ |④---|
口口口口 |⑤---|
14
口①①口 |①---|
口④③口 |②-③-|
②⑤口⑥ |④-⑤-|
口口口口 |⑥---|
15
口①①口 |①---|
③④⑤⑥ |②-③-|
②口口⑥ |④-⑤-|
口口口口 |⑥---|
16
口①①口 |①-②-|
口⑤⑥口 |③-④-|
③③③⑦ |⑤-⑥-|
④口口② |⑦---|
17
口④⑤口 |①-②-|
口口口口 |③-④-|
③口口⑥ |⑤---|
口②①口 |⑥---|
18
口③④口 |①---|
口①①口 |②-③-|
②口⑤⑥ |④-⑤-|
口口口口 |⑥---|
19
④⑤⑥⑦ |①-②-|
⑧③③⑧ |③--④⑤⑥|
②口口口 |⑦---|
口①①口 |⑧---|
20
②口口③ |①---②-|
口④④口 |--③---|
⑤①①⑥ |④-⑤-|
口⑦口口 |⑥-⑦-|
21
口口口口 |①---|
②口⑤⑥ |②-③-|
口③④口 |④-⑤-|
口口①口 |⑥---|
22
口①①口 |①-②-|
口③⑥口 |③-④-|
②④⑤⑦ |⑤--⑥|
口口口口 |--⑦-|
23
口口口口 |①---|
口③④① |②-③-|
②口口⑥ |④-⑤-|
口口口⑤ |⑥---|
24
⑥口口⑥ |①②③④|
口⑤⑧⑦ |⑤-⑥-|
⑨③④口 |--⑦-|
口①②口 |⑧-⑨-|
25
口①①口 |①---|
②口口⑤ |②-③-|
口③④口 |④---|
口口口口 |⑤---|
26
口①①口 |①---|
口③④口 |②-③-|
②口④⑥ |④--⑤|
口⑤口口 |--⑥-|
27
②⑪⑫④ |①-②-|
口⑨⑩口 |③-④-|
口⑦⑧口 |⑤⑥⑦⑧|
①⑤⑥③ |⑨⑩⑪⑫|
28
⑦口口⑥ |①---|
②口⑤⑥ |②-③-|
①口口① |④-⑤-|
口③④口 |⑥-⑦-|
29
⑦口口⑥ |①---|
口③④口 |②-③-|
②口⑤⑥ |④-⑤-|
①口口① |⑥-⑦-|
30
口口口⑥ |①---|
②口⑤⑥ |②-③-|
口③④口 |④-⑤-|
口①①口 |⑥---|
31
口②①口 |①---|
③④⑤口 |②---|
口口口口 |③-④-|
口口口口 |⑤---|
32
口②口④ |①-②-|
口⑤⑥⑦ |③-④-|
①口③口 |⑤-⑥-|
口⑧⑨口 |⑦-⑧⑨|
33
②口口口 |①---|
口③④⑤ |②---|
口口口口 |③-④-|
口口口① |⑤---|
34
口口口口 |①---|
口③④⑤ |②-③-|
②①①⑥ |④-⑤-|
口口口口 |⑥---|
35
口②③口 |①-②-|
④⑤⑥⑦ |③--④⑤⑥|
⑧⑨⑩⑪ |⑦--⑧⑨⑩|
⑫①①口 |⑪-⑫-|
36
②口⑤⑥ |①---|
⑦③④⑥ |②-③-|
口口口口 |④-⑤-|
口口口① |⑥-⑦-|
37
⑧口口⑦ |①-②-|
口④⑤口 |③-④-|
③口⑥⑦ |⑤-⑥-|
口②①口 |⑦-⑧-|
38
口口口⑥ |①---|
②口⑤⑥ |②-③-|
口③④口 |④-⑤-|
口①①口 |⑥---|
39
①⑦②口 |①-②-|
⑥①口口 |③---|
口口④③ |④-⑤-|
口⑤口口 |⑥-⑦-|
40
⑦口①⑥ |①---|
口③④口 |②-③-|
②口⑤⑥ |④-⑤-|
口口口口 |⑥-⑦-|
41
⑥口口⑤ |①-②-|
④口口③ |③-④-|
口口口口 |----|
口①②口 |⑤-⑥-|
42
口口口口 |①---|
口③④口 |②-③-|
②口⑤⑥ |④-⑤-|
口①①口 |⑥---|
43
口④③口 |①-②-|
口⑤⑥口 |③-④-|
口⑦⑧口 |---⑤|
口①②口 |⑥⑦⑧-|
44
②⑥⑧④ |①-②-|
①⑤⑦③ |③-④-|
口口口口 |⑤-⑥-|
口口口口 |⑦-⑧-|
45
②⑧⑪口 |①-②-|
①⑦⑨口 |③④⑤⑥--|
口⑩⑫口 |⑦-⑧-|
③④⑤⑥ |⑨⑩⑪⑫|
46
②⑥⑧④ |①-②-|
①⑤⑦③ |③-④-|
口口口口 |⑤-⑥-|
口口口口 |⑦-⑧-|
47
②⑧⑪口 |①-②-|
①⑦⑨口 |③④⑤⑥--|
口⑩⑫口 |⑦-⑧-|
③④⑤⑥ |⑨⑩⑪⑫|
48
②⑥⑧④ |①-②-|
①⑤⑦③ |③-④-|
口口口口 |⑤-⑥-|
口口口口 |⑦-⑧-|
49
②⑧⑪口 |①-②-|
①⑦⑨口 |③④⑤⑥--|
口⑩⑫口 |⑦-⑧-|
③④⑤⑥ |⑨⑩⑪⑫|
50
②⑥⑧④ |①-②-|
①⑤⑦③ |③-④-|
口口口口 |⑤-⑥-|
口口口口 |⑦-⑧-|
51
②⑧⑪口 |①-②-|
①⑦⑨口 |③④⑤⑥--|
口⑩⑫口 |⑦-⑧-|
③④⑤⑥ |⑨⑩⑪⑫|
52
⑪⑫口口 |--①②|
⑨⑧⑦⑥ |③④⑤-|
⑤口口⑩ |⑥⑦⑧⑨|
①②③④ |⑩-⑪⑫|
53
⑪口①② |①②③-|
⑩⑨⑨⑫ |④⑤⑥⑦|
口③⑧口 |⑧-⑨-|
④⑤⑥⑦ |-⑩⑪⑫|
54
口②口① |①---|
口口⑨⑧ |②---|
⑦口口口 |③④⑤⑥|
③④⑤⑥ |⑦-⑧⑨|
55
④⑤⑥⑦ |①②③-|
②①口口 |④⑤⑥⑦|
口口口③
口口口口

口口口口
⑪口⑩口
口⑨⑧口 |⑧-⑨-|
口口口口 |⑩-⑪-|
56
⑪⑫口口 |--①②|
⑨⑧⑦⑥ |③④⑤-|
⑤口口⑩ |⑥⑦⑧⑨|
①②③④ |⑩-⑪⑫|
57
⑪口①② |①②③-|
⑩⑨⑨⑫ |④⑤⑥⑦|
口③⑧口 |⑧-⑨-|
④⑤⑥⑦ |-⑩⑪⑫|
58
口②口① |①---|
口口⑨⑧ |②---|
⑦口口口 |③④⑤⑥|
③④⑤⑥ |⑦-⑧⑨|
59
④⑤⑥⑦ |①②③-|
②①口口 |④⑤⑥⑦|
口口口③
口口口口

口口口口
⑪口⑩口
口⑨⑧口 |⑧-⑨-|
口口口口 |⑩-⑪-|
60
②③口口 |①---|
口④⑤口 |--②---|
口口口口 |③---④-|
口①①口 |--⑤---|
61
口口①② |①---②-|
口口口③ |--③---|
口⑥⑧④ |④---⑤-|
口⑤⑦口 |⑥-⑦-⑧-|
62
③④口口 |①---②-|
②⑤⑥口 |--③---|
①口口口 |④---⑤-|
口口口口 |--⑥---|
63
口口①② |①---②-|
口口口③ |--③---|
口⑥⑧④ |④---⑤-|
口⑤⑦口 |⑥-⑦-⑧-|
64
③④口口 |①---②-|
②⑤⑥口 |--③---|
①口口口 |④---⑤-|
口口口口 |--⑥---|
65
口口①② |①---②-|
口口口③ |--③---|
口口口④ |④---|
口⑤⑤口 |⑤---|
66
口口口口 |①---|
②④⑤③ |②-③-|
⑧①①⑨ |④-⑤-|
⑥口口⑦ |⑥⑦⑧⑨|
67
口①①口 |①---|
口口口口 |②---|
口③④⑤ |③-④-|
口②②口 |⑤---|
68
①③⑤口 |----|
②④⑥口 |①-②-|
口口口口 |③-④-|
口口口口 |⑤-⑥-|
69
口口口② |①---|
口口口① |②---|
③④⑤⑥ |③④⑤⑥--|
⑦口口口 |⑦---|
70
②④⑥口 |----|
①③⑤口 |①-②-|
口口口口 |③-④-|
口口口口 |⑤-⑥-|
71
口口口口 |①---|
口口口口 |--②-|
①口口② |----|
①③③② |③---|
72
①④⑤口 |----|
②③⑥口 |①-②-|
口口口口 |③-④-|
口口口口 |⑤-⑥-|
73
口口口② |①-②-|
口口口① |③④⑤⑥--|
③④⑤⑥ |⑦-⑧-|
⑦⑨⑩⑧ |⑨-⑩-|
74
口口口口 |①②③④--|
④③②① |⑤-⑥-|
⑤⑦⑧⑥ |⑦-⑧-|
⑨口口⑩ |⑨-⑩-|
75
口①①口 |①---|
口口口口 |②---|
口③④⑤ |③-④-|
口②②口 |⑤---|
76
①③⑤口 |----|
②④⑥口 |①-②-|
口口口口 |③-④-|
口口口口 |⑤-⑥-|
77
口口口② |①---|
口口口① |②---|
③④⑤⑥ |③④⑤⑥--|
⑦口口口 |⑦---|
78
②④⑥口 |----|
①③⑤口 |①-②-|
口口口口 |③-④-|
口口口口 |⑤-⑥-|
79
口口口口 |①-②-|
④口口④ |③-④-|
⑦②③⑦ |⑤-⑥-|
①⑤⑥① |⑦---|
80
口②②口 |----|
④⑥⑥④ |①-②-|
口①①口 |③-④-|
③⑤⑤③ |⑤-⑥-|
81
①口口② |①-②-|
⑩口口⑧ |③④⑤⑥--|
③④⑤⑥ |⑦-⑧-|
⑦口口⑨ |⑨-⑩-|
82
④③②① |①②③④--|
⑨⑩⑪⑫ |⑤-⑥-|
⑤⑧⑦⑥ |⑦-⑧-|
⑨⑩⑪⑫ |⑨⑩⑪⑫--|
83
①口口① |①---②-|
口口口口 |--③---|
②④⑤③ |④---⑤-|
口⑥口口 |--⑥---|
84
②口口③ |①---②-|
⑥⑦⑧⑨ |--③---|
⑩④⑤⑪ |④---⑤-|
口口①口 |⑥⑦⑧⑨⑩-⑪-|
85
口②②口 |①---|
③口口③ |--②-|
③口口③ |----|
口①①口 |③---|


不确定度: 0

タグ:

+ タグ編集
  • タグ:

このサイトはreCAPTCHAによって保護されており、Googleの プライバシーポリシー利用規約 が適用されます。

最終更新:2012年11月10日 13:55