croiX
TeamGrimoire+あま猫

BASIC

Level: 7
BPM: 160-195
Notes: 493

BPM: 195
1
口口口口 |----|
口口口口 |----|
口口口口 |----|
口口口口 |----|
2
口口口口 |①---|
③口口口 |②---|
口②④口 |③---|
①口口③ |④---|
3
口①口② |①---|
口③①口 |②---|
④口口③ |③---|
口口口口 |④---|
4
口口④口 |①---|
口口口③ |②---|
口口②口 |③---|
口①①口 |④---|
5
口口口① |①---|
口口②口 |②---|
口口口③ |③---|
口口④口 |④---|
6
口口口口 |①---|
③口口口 |②---|
口②④口 |③---|
①口口③ |④---|
7
口①①口 |①---|
口②④口 |②---|
③口口口 |③---|
口口口口 |④---|

BPM: 180
8
①口口① |①---|
口口口口 |----|
口口口口
口口口口

BPM: 170
9
口口口口 |①---|
①口口① |----|
口口口口
口口口口

BPM: 160
10
口口口口 |①---|
口口口口 |----|
①口口① |②---|
②口口② |----|
11
口口口口 |----|
口口口口 |----|
口口口口 |----|
口口口口 |----|

BPM: 195
12
口口口口 |----|
口口口口 |----|
口口口口 |----|
口口口口 |----|
13
口口口口 |----|
口口口口 |----|
口口口口 |----|
口口口口 |----|
14
口口口口 |----|
口口口口 |----|
口口口口 |----|
口口口口 |----|
15
口③①口 |①---|
③口④① |②-③-|
口④②口 |----|
口口口口 |④---|
16
口③①口 |①---|
③口④① |②-③-|
口④②口 |----|
口口口口 |④---|
17
④口口④ |①---|
口②口口 |②-③-|
①口口③ |----|
口①③口 |④---|
18
口口口口 |①---|
口②口口 |--②-|
口④③口 |③---|
①口口① |--④-|
19
②口口口 |①---|
口口①③ |----|
④口口口 |②-③-|
口口口⑤ |④-⑤-|
20
口口口口 |①---|
口口口口 |--②-|
口①②口
口口口口

口口口口
口③口口
口④口口 |③---|
口口口口 |--④-|
21
口③③口 |①---|
口口①口 |----|
口口口口 |②---|
口②②口 |③---|
22
③口口③ |①---|
①口口① |②---|
④口口④ |③---|
②口口② |④---|
23
口③①口 |①---|
③口④① |②-③-|
口④②口 |----|
口口口口 |④---|
24
口③①口 |①---|
③口④① |②-③-|
口④②口 |----|
口口口口 |④---|
25
④口口④ |①---|
口②口口 |②-③-|
①口口③ |----|
口①③口 |④---|
26
口口口口 |①---|
口②口口 |--②-|
口④③口 |③---|
①口口① |--④-|
27
②口口口 |①---|
口口①③ |----|
④口口口 |②-③-|
口口口⑤ |④-⑤-|
28
口口口口 |①---|
口口口口 |--②-|
口①②口
口口口口

口口口口
口③口口
口④口口 |③---|
口口口口 |--④-|
29
②口口① |①-②-|
④口口③ |③-④-|
⑥口口⑤ |⑤-⑥-|
⑧口口⑦ |⑦-⑧-|
30
口②①口 |①-②-|
口④③口 |③-④-|
口⑥⑤口 |⑤-⑥-|
口⑧⑦口 |⑦-⑧-|
31
②口口① |①---|
②口口① |--②-|
口口口③ |----|
口口口③ |③---|
32
口③③口 |--①-|
口口口口 |----|
①口口口 |②---|
①②②口 |③---|
33
口口口③ |①---|
口口口③ |--②-|
②口口① |----|
②口口① |③---|
34
①②②口 |--①-|
①口口口 |----|
口口口口 |②---|
口③③口 |③---|
35
口口口③ |①---|
口②②③ |②---|
口②②口 |----|
口口口① |③---|
36
①③③口 |--①-|
①口口口 |----|
口口口口 |②---|
口②②口 |③---|
37
②口口① |①---|
②口口① |--②-|
口口口③ |----|
口口口③ |③---|
38
口②②口 |--①-|
口口口口 |----|
①口口口 |②---|
①③③口 |③---|
39
口口④口 |①---|
口口口③ |②---|
口口②口 |③---|
口口口① |④---|
40
④①口④ |①---|
②口口口 |②---|
口口口口 |③---|
口③③口 |④---|
41
口④口口 |①---|
③口口口 |②---|
口②口口 |③---|
①口口口 |④---|
42
③口①③ |①---|
口口口② |②---|
口口口口 |③---|
口④④口 |④---|
43
口口④口 |①---|
口口口③ |②---|
口口②口 |③---|
口口口① |④---|
44
④①口④ |①---|
②口口口 |②---|
口口口口 |③---|
口③③口 |④---|
45
口④口口 |①---|
③口口口 |②---|
口②口口 |③---|
①口口口 |④---|
46
③口①③ |①---|
口口口② |②---|
口口口口 |③---|
口④④口 |④---|
47
口口口口 |①---|
口口口口 |②---|
②②口①
口口口口

BPM: 190
48
②②口① |①---|
口口口口 |②---|
口口口口
口口口口

BPM: 185
49
口口口口 |①---|
口口口口 |②---|
口口口口
②②口①

BPM: 180
50
口口口口 |①---|
②②口① |②---|
口口口口
口口口口

BPM: 175
51
口口口口 |①---|
口口口口 |②---|
②②口①
口口口口

BPM: 170
52
②②口① |①---|
口口口口 |②---|
口口口口
口口口口

BPM: 165
53
口口口口 |①---|
口口口口 |②---|
口口口口
②②口①

BPM: 160
54
口口口口 |①---|
②②口① |②---|
口口口口
口口口口
55
口口口口 |①---|
口口口口 |②---|
②②口①
口口口口

BPM: 165
56
②②口① |①---|
口口口口 |②---|
口口口口
口口口口

BPM: 170
57
口口口口 |①---|
口口口口 |②---|
口口口口
②②口①

BPM: 175
58
口口口口 |①---|
口口口口 |②---|
②②口①
口口口口

BPM: 180
59
口口口口 |①---|
②②口① |②---|
口口口口
口口口口

BPM: 185
60
口口口口 |①---|
口口口口 |②---|
口口口口
②②口①

BPM: 190
61
②②口① |①---|
口口口口 |②---|
口口口口
口口口口

BPM: 195
62
口口口口 |①---|
口口口口 |②---|
②②口①
口口口口
63
④口①① |①---|
④口②口 |②---|
口口③口 |③---|
口口口口 |④---|
64
口③③口 |①---|
口④④口 |②---|
口①口口 |③---|
口①口② |④---|
65
口④口口 |①---|
③口口口 |②---|
②口口口 |③---|
①①口口 |④---|
66
口口口③ |①---|
口④口③ |②---|
口④①① |③---|
口②口口 |④---|
67
①①口口 |①---|
口口②口 |②---|
口口③口 |③---|
④④口口 |④---|
68
①①口口 |①---|
口口口② |②---|
口③口口 |③---|
口口④口 |④---|
69
③③①① |①---|
口口口口 |②---|
口口口口 |③---|
②口口④ |④---|
70
口④④口 |①---|
①①①① |②---|
口②②口 |③---|
口③③口 |④---|
71
④口口① |①---|
④③②① |②---|
口口口口 |③---|
口口口口 |④---|
72
口口口口 |①---|
④口口口 |②---|
④③②① |③---|
口口口① |④---|
73
①①①① |①---|
口③③口 |--②-|
口③③口 |----|
②②②② |③---|
74
①①①① |----|
②口口② |①---|
③口口③ |②---|
口口口口 |③---|
75
口④④口 |①---|
口③③口 |②---|
口②②口 |③---|
口①①口 |④---|
76
④口口④ |①---|
③口口③ |②---|
②口口② |③---|
①口口① |④---|
77
口④④口 |①---|
口③③口 |②---|
口②②口 |③---|
口①①口 |④---|
78
①口口① |①---|
口③③口 |②---|
口口口口 |③---|
②④④② |④---|
79
口③①口 |①---|
③口④① |②-③-|
口④②口 |----|
口口口口 |④---|
80
口③①口 |①---|
③口④① |②-③-|
口④②口 |----|
口口口口 |④---|
81
④口口④ |①---|
口②口口 |②-③-|
①口口③ |----|
口①③口 |④---|
82
口口口口 |①---|
口②口口 |--②-|
口④③口 |③---|
①口口① |--④-|
83
②口口口 |①---|
口口①③ |----|
④口口口 |②-③-|
口口口⑤ |④-⑤-|
84
口口口口 |①---|
口口口口 |--②-|
口①②口
口口口口

口口口口
口③口口
口④口口 |③---|
口口口口 |--④-|
85
口③③口 |①---|
口口①口 |----|
口口口口 |②---|
口②②口 |③---|
86
③口口③ |①---|
①口口① |②---|
④口口④ |③---|
②口口② |④---|
87
口③①口 |①---|
③口④① |②-③-|
口④②口 |----|
口口口口 |④---|
88
口③①口 |①---|
③口④① |②-③-|
口④②口 |----|
口口口口 |④---|
89
④口口④ |①---|
口②口口 |②-③-|
①口口③ |----|
口①③口 |④---|
90
口口口口 |①---|
口②口口 |--②-|
口④③口 |③---|
①口口① |--④-|
91
②口口口 |①---|
口口①③ |----|
④口口口 |②-③-|
口口口⑤ |④-⑤-|
92
口口口口 |①---|
口口口口 |--②-|
口①②口
口口口口

口口口口
口③口口
口④口口 |③---|
口口口口 |--④-|
93
②口口① |①-②-|
④口口③ |③-④-|
⑥口口⑤ |⑤-⑥-|
⑧口口⑦ |⑦-⑧-|
94
口②①口 |①-②-|
口④③口 |③-④-|
口⑥⑤口 |⑤-⑥-|
口⑧⑦口 |⑦-⑧-|
95
①①①① |①---|
口口口口 |----|
口口口口 |----|
口口口口 |----|

不確定度: 0

最終更新:2016年04月18日 01:22