croiX
TeamGrimoire+あま猫

ADVANCED

Level: 9
BPM: 160-195
Notes: 707

BPM: 195
1
口口口口 |----|
口口口口 |----|
口口口口 |----|
口口口口 |----|
2
⑤口口④ |①-②-|
口⑥③口 |③-④-|
口②⑦口 |⑤---|
①口口口 |⑥-⑦-|
3
⑤口口口 |①---|
口口④口 |②-③-|
口③口口 |④---|
②口口① |⑤---|
4
口口②口 |①-②-|
口③口① |③-④-|
口⑦④口 |⑤---|
⑥口口⑤ |⑥-⑦-|
5
⑥口口口 |①-②-|
口②①口 |③-④-|
口口③口 |⑤---|
口⑤口④ |⑥---|
6
口口⑤① |①---|
口④口② |②---|
口口口③ |③---|
口口口口 |④-⑤-|
7
⑥①口口 |①-②-|
口口②口 |③-④-|
口③口口 |⑤---|
⑤口④口 |⑥---|

BPM: 180
8
口口口① |①-②-|
口口②口 |③-④-|
口口口③
口口④口

BPM: 170
9
口①口口 |①-②-|
②口口口 |③-④-|
口③口口
④口口口

BPM: 160
10
口口①口 |①-②-|
口②⑤③ |③-④-|
④⑥口口 |⑤-⑥-|
口口⑦口 |⑦---|
11
口口口口 |----|
口口口口 |----|
口口口口 |----|
口口口口 |----|

BPM: 195
12
口口口口 |----|
口口口口 |----|
口口口口 |----|
口口口口 |----|
13
口口口口 |----|
口口口口 |----|
口口口口 |----|
口口口口 |----|
14
⑦口口⑧ |①-②-|
⑤口口⑥ |③-④-|
③口口④ |⑤-⑥-|
①口口② |⑦-⑧-|
15
⑩口口口 |①②③-|
口⑨④口 |④-⑤⑥|
⑤②①⑥ |⑦-⑧-|
⑦口③⑧ |⑨-⑩-|
16
⑩口④口 |①②③-|
②⑧⑨① |④-⑤⑥|
口⑤③⑥ |⑦-⑧-|
口⑦口口 |⑨-⑩-|
17
口口⑨口 |①②③-|
⑧口口④ |④-⑤⑥|
②⑤①⑥ |⑦-⑧-|
⑦⑩口③ |⑨-⑩-|
18
口⑥⑤口 |①---|
口口①口 |--②③|
口②③④ |④---|
口口口口 |--⑤⑥|
19
①口口③ |①---|
口口④口 |--②-|
口口口⑤ |③-④-|
口②⑥口 |⑤-⑥-|
20
口口⑥⑤ |①---|
口①口口 |--②③|
②③④口 |④---|
口口口口 |--⑤⑥|
21
口①口口 |①---|
口③⑥② |--②-|
口口④口 |③-④-|
口⑤口口 |⑤-⑥-|
22
⑦②④⑦ |①-②-|
⑤⑧口⑤ |③-④-|
③口口③ |⑤-⑥-|
①⑥口① |⑦-⑧-|
23
⑩口口口 |①②③-|
口⑨④口 |④-⑤⑥|
⑤②①⑥ |⑦-⑧-|
⑦口③⑧ |⑨-⑩-|
24
⑩口④口 |①②③-|
②⑧⑨① |④-⑤⑥|
口⑤③⑥ |⑦-⑧-|
口⑦口口 |⑨-⑩-|
25
口口⑨口 |①②③-|
⑧口口④ |④-⑤⑥|
②⑤①⑥ |⑦-⑧-|
⑦⑩口③ |⑨-⑩-|
26
口⑥⑤口 |①---|
口口①口 |--②③|
口②③④ |④---|
口口口口 |--⑤⑥|
27
①口口③ |①---|
口口④口 |--②-|
口口口⑤ |③-④-|
口②⑥口 |⑤-⑥-|
28
口口口口 |①---|
口①口口 |--②③|
②③④口 |④---|
口口⑤口 |--⑤-|
29
①⑤⑦③ |①-②-|
口口口口 |③-④-|
口口口口 |⑤-⑥-|
②⑥⑧④ |⑦-⑧-|
30
⑨⑩⑪⑫ |①②③④|
⑤⑥⑦⑧ |⑤⑥⑦⑧|
①②③④ |⑨⑩⑪⑫|
⑬⑭⑮⑯ |⑬⑭⑮⑯|
31
⑤⑤口口 |①---|
口④③③ |②-③-|
①①②口 |--④-|
口口口口 |⑤---|
32
口口口口 |①-②-|
④⑤③口 |--③-|
口口②② |④---|
⑤④①口 |⑤---|
33
③③口口 |①---|
口口⑤⑤ |②-③-|
②口①① |--④-|
口口口④ |⑤---|
34
口③⑤④ |①-②-|
②②口口 |--③-|
口口④⑤ |④---|
①口口口 |⑤---|
35
口口③③ |①---|
②②②② |②---|
①①口口 |----|
口口口口 |③---|
36
口③口口 |①-②-|
②②⑤④ |--③-|
口口口口 |④---|
①口④⑤ |⑤---|
37
口口③③ |①---|
⑤⑤口口 |②-③-|
①①口② |--④-|
口④口口 |⑤---|
38
口③⑤④ |①-②-|
口口②② |--③-|
口口④⑤ |④---|
口口口① |⑤---|
39
⑦⑧口口 |①-②-|
口口⑤④ |③-④-|
口⑥口口 |⑤-⑥-|
①②③口 |⑦-⑧-|
40
口口①⑤ |①-②-|
口④⑥口 |③-④-|
口⑦③② |⑤-⑥-|
⑧口口口 |⑦-⑧-|
41
口④⑤口 |①-②-|
口⑥口③ |③-④-|
口口⑦② |⑤-⑥-|
口⑧①口 |⑦-⑧-|
42
④口口② |①-②-|
口⑧⑥口 |③-④-|
③口口① |⑤-⑥-|
⑦口口⑤ |⑦-⑧-|
43
⑦⑧口口 |①-②-|
口口⑤④ |③-④-|
口⑥①口 |⑤-⑥-|
口②③口 |⑦-⑧-|
44
口口①⑤ |①-②-|
口④⑥口 |③-④-|
口⑦③② |⑤-⑥-|
⑧口口口 |⑦-⑧-|
45
口④⑤口 |①-②-|
口⑥口③ |③-④-|
口口⑦② |⑤-⑥-|
口⑧①口 |⑦-⑧-|
46
④口口② |①-②-|
口⑧⑥口 |③-④-|
③口口① |⑤-⑥-|
口⑦⑤口 |⑦-⑧-|
47
口口①① |①-②-|
④口口口 |③-④-|
口口口③
②口口口

BPM: 190
48
口口口口 |①-②-|
口④①① |③-④-|
口口③口
口②口口

BPM: 185
49
口口①① |①-②-|
④口口口 |③-④-|
口口口③
②口口口

BPM: 180
50
口口口口 |①-②-|
口④①① |③-④-|
口口③口
口②口口

BPM: 175
51
口口①① |①-②-|
④口口口 |③-④-|
口口口③
②口口口

BPM: 170
52
口口口口 |①-②-|
口④①① |③-④-|
口口③口
口②口口

BPM: 165
53
口口①① |①-②-|
④口口口 |③-④-|
口口口③
②口口口

BPM: 160
54
口口口口 |①-②-|
口④①① |③-④-|
口口③口
口②口口
55
口口①① |①-②-|
④口口口 |③-④-|
口口口③
②口口口

BPM: 165
56
口口口口 |①-②-|
口④①① |③-④-|
口口③口
口②口口

BPM: 170
57
口口①① |①-②-|
④口口口 |③-④-|
口口口③
②口口口

BPM: 175
58
口口口口 |①-②-|
口④①① |③-④-|
口口③口
口②口口

BPM: 180
59
口口①① |①-②-|
④口口口 |③-④-|
口口口③
②口口口

BPM: 185
60
口口口口 |①-②-|
口④①① |③-④-|
口口③口
口②口口

BPM: 190
61
口口①① |①-②-|
④口口口 |③-④-|
口口口③
②口口口

BPM: 195
62
口口口口 |①-②-|
口④①① |③-④-|
口口③口
口②口口
63
④④①① |①---|
③口口口 |②---|
②口口口 |③---|
口口口口 |④---|
64
口口口③ |①---|
口④口口 |②-③-|
口⑥②⑤ |④-⑤-|
①口①⑦ |⑥-⑦-|
65
口④口口 |①---|
⑤口⑦③ |②-③-|
②⑥口口 |④-⑤-|
①口口口 |⑥-⑦-|
66
口口口③ |①---|
口④口口 |②-③-|
⑥口⑤① |④-⑤-|
口②⑦口 |⑥-⑦-|
67
口口⑤③ |①---|
④口口口 |②-③-|
口②口口 |--④-|
①口口口 |⑤---|
68
①①⑤口 |①---|
口口口口 |②-③-|
口③口④ |--④-|
口口口② |⑤---|
69
①①口口 |①-②-|
⑤⑤口⑥ |③-④-|
口口②口 |⑤-⑥-|
⑦③④⑧ |⑦-⑧-|
70
①①④④ |①-②-|
⑤⑤⑥⑥ |③-④-|
③③②② |⑤-⑥-|
⑦⑦⑧⑧ |⑦-⑧-|
71
①①④③ |①-②-|
口⑤口口 |③-④-|
⑥⑦⑧② |⑤-⑥-|
口口口口 |⑦-⑧-|
72
口④口口 |①-②-|
③⑧⑤口 |③-④-|
口口⑦⑥ |⑤-⑥-|
②口①① |⑦-⑧-|
73
②口③口 |①-②-|
口口口④ |③-④-|
①①口⑤ |⑤-⑥-|
⑧⑦⑥口 |⑦-⑧-|
74
口口②口 |①-②-|
①①口③ |③-④-|
⑥⑤④口 |⑤-⑥-|
口⑦⑧口 |⑦-⑧-|
75
口口①① |①-②-|
②③口口 |③-④-|
口⑧④口 |⑤-⑥-|
⑦⑥口⑤ |⑦-⑧-|
76
②口①① |①-②-|
口⑧③口 |③-④-|
⑦口口④ |⑤-⑥-|
口⑥⑤口 |⑦-⑧-|
77
③③①① |①-②-|
⑦⑦⑤⑤ |③-④-|
口④②口 |⑤-⑥-|
口⑧⑥口 |⑦-⑧-|
78
⑩⑨⑧⑦ |①-②-|
⑥口口⑤ |③-④-|
②口口① |⑤-⑥-|
④口口③ |⑦⑧⑨⑩|
79
⑩口口口 |①②③-|
口⑨④口 |④-⑤⑥|
⑤②①⑥ |⑦-⑧-|
⑦口③⑧ |⑨-⑩-|
80
⑩口④口 |①②③-|
②⑧⑨① |④-⑤⑥|
口⑤③⑥ |⑦-⑧-|
口⑦口口 |⑨-⑩-|
81
口口⑨口 |①②③-|
⑧口口④ |④-⑤⑥|
②⑤①⑥ |⑦-⑧-|
⑦⑩口③ |⑨-⑩-|
82
口⑩⑨③ |①-②-|
口②①口 |③-④⑤|
⑧④⑤⑥ |⑥-⑦-|
口口⑦口 |⑧-⑨⑩|
83
①口口⑤ |①-②-|
③口⑥② |③-④-|
口口口⑦ |⑤-⑥-|
口④⑧口 |⑦-⑧-|
84
③口⑩⑨ |①-②-|
口①⑧② |③-④⑤|
④⑤⑥口 |⑥-⑦-|
⑦口口口 |⑧-⑨⑩|
85
口①口口 |①-②-|
口⑤⑧④ |③-④-|
③口⑥口 |⑤-⑥-|
口⑦口② |⑦-⑧-|
86
⑦②④⑦ |①-②-|
⑤⑧口⑤ |③-④-|
③口口③ |⑤-⑥-|
①⑥口① |⑦-⑧-|
87
⑩口口口 |①②③-|
口⑨④口 |④-⑤⑥|
⑤②①⑥ |⑦-⑧-|
⑦口③⑧ |⑨-⑩-|
88
⑩口④口 |①②③-|
②⑧⑨① |④-⑤⑥|
口⑤③⑥ |⑦-⑧-|
口⑦口口 |⑨-⑩-|
89
口口⑨口 |①②③-|
⑧口口④ |④-⑤⑥|
②⑤①⑥ |⑦-⑧-|
⑦⑩口③ |⑨-⑩-|
90
口⑩⑨③ |①-②-|
口②①口 |③-④⑤|
⑧④⑤⑥ |⑥-⑦-|
口口⑦口 |⑧-⑨⑩|
91
①口口⑤ |①-②-|
③口⑥② |③-④-|
口口口⑦ |⑤-⑥-|
口④⑧③ |⑦-⑧-|
92
口口②口 |①-②-|
⑦①⑧③ |③-④⑤|
④⑤⑥口 |⑥-⑦-|
口口⑨口 |⑧-⑨-|
93
①⑤⑦③ |①-②-|
口口口口 |③-④-|
口口口口 |⑤-⑥-|
②⑥⑧④ |⑦-⑧-|
94
⑨⑩⑪⑫ |①②③④|
⑤⑥⑦⑧ |⑤⑥⑦⑧|
①②③④ |⑨⑩⑪⑫|
⑬⑭⑮⑯ |⑬⑭⑮⑯|
95
口口口口 |①---|
口口口口 |----|
口①①口 |----|
口口口口 |----|

不確定度: 0

最終更新:2016年04月18日 01:22