glacia
DJ TOTTO

ADVANCED

Level: 9
BPM: 186
Notes: 750

1
口口口口 |----|
口口口口 |----|
口口口口 |----|
口①①口 |①---|
2
⑥口③④ |①-②-|
口②口口 |③-④-|
①口口口 |--⑤-|
口口⑤口 |--⑥-|
3
口口口口 |--①-|
口⑥口口 |--②③|
口①⑤口 |④-⑤-|
口④③② |⑥---|
4
④③口口 |①-②-|
口口②⑥ |③-④-|
口口口① |--⑤-|
口⑤口口 |--⑥-|
5
口①③② |--①-|
④口口口 |--②③|
口口⑤口 |④-⑤-|
⑥口口⑦ |⑥-⑦-|
6
⑥口③④ |①-②-|
口②口口 |③-④-|
①口口口 |--⑤-|
口口⑤口 |--⑥-|
7
口口口口 |--①-|
口口口口 |--②③|
口⑤①口 |④-⑤-|
②③④⑥ |⑥---|
8
④③⑧口 |①-②-|
口口②⑦ |③-④-|
口⑥口① |⑤-⑥-|
口口⑤口 |⑦-⑧-|
9
口口口口 |--①-|
①③④口 |②-③④|
⑧⑤⑥⑧ |⑤⑥⑦-|
口⑦口② |⑧---|
10
①①①① |①-②③|
②③④口 |④-⑤-|
口口口⑥ |--⑥-|
⑤⑦口口 |--⑦-|
11
口⑥口口 |--①-|
口④③② |--②③|
口口①口 |④-⑤-|
⑦口⑤口 |⑥-⑦-|
12
⑤口口口 |--①②|
口口④⑥ |③-④-|
口③②① |--⑤-|
口口口口 |--⑥-|
13
口①口口 |--①-|
口⑥口口 |--②③|
⑦口⑤口 |④-⑤-|
②③④口 |⑥-⑦-|
14
口③②① |--①②|
⑤口口口 |③-④-|
口口口⑥ |--⑤-|
口口口④ |--⑥-|
15
②③④口 |--①-|
口⑥口口 |--②③|
⑤口⑦口 |④-⑤-|
①口口口 |⑥-⑦-|
16
④口口口 |--①②|
口⑧⑤口 |③-④-|
⑥口口口 |⑤-⑥-|
①②③⑦ |⑦-⑧-|
17
③④⑤⑥ |--①-|
⑨口口口 |②-③④|
口⑦口② |⑤⑥⑦-|
①口⑧口 |⑧-⑨-|
18
口口口口 |①-②-|
口口口④ |③-④-|
①⑤③口 |--⑤-|
口②⑥⑦ |⑥-⑦-|
19
口②①⑪ |--①②|
⑥⑤④③ |③④⑤⑥|
⑩⑨⑧⑦ |⑦⑧⑨⑩|
口口口口 |⑪---|
20
⑤①①口 |①-②③|
口⑦口⑦ |④-⑤-|
⑧口⑧口 |⑥-⑦-|
②③④⑥ |--⑧-|
21
口④③② |--①-|
口⑥口口 |--②③|
口①口① |④-⑤-|
⑤口⑦口 |⑥-⑦-|
22
④口⑧⑧ |--①②|
⑦⑦⑥⑥ |③-④-|
①②③口 |⑤-⑥-|
⑤⑤口口 |⑦-⑧-|
23
③④口口 |--①-|
⑨口⑤⑥ |②-③④|
⑦①口⑧ |⑤⑥⑦-|
口口②口 |⑧-⑨-|
24
⑨⑧⑦⑥ |--①②|
口⑤⑩口 |③④⑤-|
⑪⑫口口 |⑥⑦⑧⑨|
①②③④ |⑩-⑪⑫|
25
⑥⑦⑧口 |①-②-|
②⑨口⑤ |③-④-|
口口①口 |⑤-⑥⑦|
④口口③ |⑧-⑨-|
26
⑧⑧口① |--①-|
口口⑦⑦ |②③④⑤|
②③④⑤ |⑥-⑦-|
⑥口口口 |--⑧-|
27
口⑦⑦① |--①-|
④⑥⑥④ |②-③-|
①⑤⑤口 |④-⑤-|
口②③② |⑥-⑦-|
28
⑤口口口 |①-②③|
口口口口 |④-⑤-|
①口口①
②③④口

口口口口
口⑦口⑦
⑧口⑧口 |⑥-⑦-|
口口口⑥ |--⑧-|
29
口④③② |--①-|
口⑥口口 |--②③|
口①口① |④-⑤-|
⑤口⑦口 |⑥-⑦-|
30
④口⑧⑧ |--①②|
⑦⑦⑥⑥ |③-④-|
①②③口 |⑤-⑥-|
⑤⑤口口 |⑦-⑧-|
31
③④口口 |--①-|
⑨口⑤⑥ |②-③④|
⑦①口⑧ |⑤⑥⑦-|
口口②口 |⑧-⑨-|
32
⑨⑧⑦⑥ |--①②|
口⑤⑩口 |③④⑤-|
⑪⑫口口 |⑥⑦⑧⑨|
①②③④ |⑩-⑪⑫|
33
⑥⑦⑧口 |①-②-|
②⑨口⑤ |③-④-|
口口①口 |⑤-⑥⑦|
④口口③ |⑧-⑨-|
34
⑨口口⑩ |--①②|
⑦口口⑧ |③④⑤⑥|
③④⑤⑥ |⑦-⑧-|
口①②口 |⑨-⑩-|
35
口①①口 |--①-|
⑧⑨⑩⑪ |②-③-|
④⑤⑥⑦ |④⑤⑥⑦|
②③③② |⑧⑨⑩⑪|
36
②①①口 |①---|
口口口口 |----|
口口口口 |②---|
口口口口 |----|
37
口口②口 |①---|
口口口口 |----|
口口口口 |②---|
口①口口 |----|
38
口口口口 |①---|
口口口口 |----|
口口口① |----|
口口口口 |----|
39
口口口口 |----|
口口口口 |----|
口口口口 |----|
口口口口 |----|
40
口口口① |----|
口口口口 |----|
口口口口 |①---|
口口口口 |----|
41
口②口口 |①---|
口口口口 |----|
口口口口 |②---|
口口①口 |----|
42
口口②② |①---|
口口口口 |----|
①口口口 |----|
口口口口 |--②-|
43
口口口口 |--①-|
口①口口 |②-③-|
口口②口 |----|
口③口口 |----|
44
①⑤①⑤ |①-②-|
⑥②⑥② |③-④-|
③⑦③⑦ |--⑤-|
口④口④ |⑥-⑦-|
45
口口口口 |①---|
口口口口 |----|
口口口口
①口①口

口口口口
口②口口
口口口口 |②---|
③口③口 |--③-|
46
④①④① |①-②-|
②⑤②⑤ |③---|
⑥③⑥③ |④-⑤-|
口⑦口⑦ |⑥-⑦-|
47
口口口口 |----|
口①口口 |----|
口口口口 |①---|
口口口口 |----|
48
⑤①⑤① |①-②-|
②⑥②⑥ |③-④-|
⑦③⑦③ |--⑤-|
④口④口 |⑥-⑦-|
49
口口口口 |①---|
口口口口 |----|
口口口口
口①口①

口口口口
口口口口
口口口口 |----|
口②口② |--②-|
50
①④①④ |①-②-|
⑤②⑤② |③---|
③⑥③⑥ |④-⑤-|
⑦口⑦口 |⑥-⑦-|
51
①⑨②⑩ |①②③④|
⑪③⑫④ |⑤⑥⑦⑧|
⑤⑬⑥⑭ |⑨⑩⑪⑫|
⑮⑦⑯⑧ |⑬⑭⑮⑯|
52
①④口口 |①-②-|
⑤①⑥③ |③-④-|
②口口口 |--⑤-|
口口口⑦ |⑥-⑦-|
53
口⑨⑩⑧ |--①②|
⑦口口口 |③④⑤⑥|
③④⑤⑥ |⑦-⑧-|
口①②口 |⑨-⑩-|
54
口口口口 |①-②-|
口①④口 |③-④-|
口③口口
口口口②

⑤口口口
口⑦口口
口口口口 |--⑤-|
口口⑥口 |⑥-⑦-|
55
口口口① |--①-|
口口⑤口 |--②③|
⑥④③② |④-⑤-|
口口⑦口 |⑥-⑦-|
56
⑥①②③ |--①②|
口④口口 |③-④-|
口口⑦口 |--⑤-|
⑤口口口 |⑥-⑦-|
57
口②①口 |--①②|
⑥⑤④③ |③④⑤⑥|
⑧口口⑦ |⑦-⑧-|
⑩口口⑨ |⑨-⑩-|
58
⑧①②③ |--①②|
⑧⑥口⑦ |③-④-|
口口⑤口 |⑤-⑥-|
口④口口 |⑦-⑧-|
59
口②②口 |--①-|
口③③口 |--②-|
口②②① |--③-|
④口⑤① |④-⑤-|
60
⑦⑦④④ |--①②|
⑤口⑤口 |③-④-|
口③②① |--⑤-|
口⑥口⑥ |⑥-⑦-|
61
⑧口口⑦ |--①-|
⑧①口⑦ |②-③-|
口⑥⑤④ |④⑤⑥-|
③口②口 |⑦-⑧-|
62
口④⑦⑦ |--①②|
口口⑤口 |③-④-|
口⑥口口 |--⑤-|
口①②③ |⑥-⑦-|
63
口口口口 |--①-|
②③④口 |--②③|
⑤口①① |④-⑤-|
⑦口口⑥ |⑥-⑦-|
64
口③②① |--①②|
口口⑥口 |③-④-|
口口口④ |--⑤-|
口⑤口⑦ |⑥-⑦-|
65
⑦口①⑥ |--①-|
口⑨⑧口 |②③④⑤|
⑤④③② |⑥-⑦-|
口口口口 |⑧-⑨-|
66
口⑦口口 |--①②|
⑥口口④ |③-④-|
口③②① |⑤-⑥-|
⑧⑤⑧口 |⑦-⑧-|
67
②口②口 |--①-|
口③口口 |--②-|
⑥①④① |--③④|
口口口⑤ |⑤-⑥-|
68
口①口① |①-②-|
②口②口 |③-④-|
口③口③
④口④口

口⑥口⑥
口口口口
口口口口 |--⑤-|
口⑤口⑤ |--⑥-|
69
①口①口 |--①-|
④②④② |②-③-|
③④③④ |----|
口口口口 |④---|
70
⑤①①口 |①-②③|
口⑦口⑦ |④-⑤-|
⑧口⑧口 |⑥-⑦-|
②③④⑥ |--⑧-|
71
口④③② |--①-|
口⑥口口 |--②③|
口①口① |④-⑤-|
⑤口⑦口 |⑥-⑦-|
72
④口⑧⑧ |--①②|
⑦⑦⑥⑥ |③-④-|
①②③口 |⑤-⑥-|
⑤⑤口口 |⑦-⑧-|
73
③④口口 |--①-|
⑨口⑤⑥ |②-③④|
⑦①口⑧ |⑤⑥⑦-|
口口②口 |⑧-⑨-|
74
⑨⑧⑦⑥ |--①②|
口⑤⑩口 |③④⑤-|
⑪⑫口口 |⑥⑦⑧⑨|
①②③④ |⑩-⑪⑫|
75
⑥⑦⑧口 |①-②-|
②⑨口⑤ |③-④-|
口口①口 |⑤-⑥⑦|
④口口③ |⑧-⑨-|
76
⑧⑧口① |--①-|
口口⑦⑦ |②③④⑤|
②③④⑤ |⑥-⑦-|
⑥口口口 |--⑧-|
77
口⑦⑦① |--①-|
④⑥⑥④ |②-③-|
①⑤⑤口 |④-⑤-|
口②③② |⑥-⑦-|
78
⑤口口口 |①-②③|
口口口口 |④-⑤-|
①口口①
②③④口

口口口口
口⑦口⑦
⑧口⑧口 |⑥-⑦-|
口口口⑥ |--⑧-|
79
口④③② |--①-|
口⑥口口 |--②③|
口①口① |④-⑤-|
⑤口⑦口 |⑥-⑦-|
80
④口⑧⑧ |--①②|
⑦⑦⑥⑥ |③-④-|
①②③口 |⑤-⑥-|
⑤⑤口口 |⑦-⑧-|
81
③④口口 |--①-|
⑨口⑤⑥ |②-③④|
⑦①口⑧ |⑤⑥⑦-|
口口②口 |⑧-⑨-|
82
⑨⑧⑦⑥ |--①②|
口⑤⑩口 |③④⑤-|
⑪⑫口口 |⑥⑦⑧⑨|
①②③④ |⑩-⑪⑫|
83
⑥⑦⑧口 |①-②-|
②⑨口⑤ |③-④-|
口口①口 |⑤-⑥⑦|
④口口③ |⑧-⑨-|
84
⑨口口⑩ |--①②|
⑦口口⑧ |③④⑤⑥|
③④⑤⑥ |⑦-⑧-|
口①②口 |⑨-⑩-|
85
口①①口 |--①-|
⑧⑨⑩⑪ |②-③-|
④⑤⑥⑦ |④⑤⑥⑦|
②③③② |⑧⑨⑩⑪|
86
②①①③ |①-②-|
口⑧口口 |--③-|
口口口口 |--④⑤|
④⑤⑥⑦ |⑥⑦⑧-|
87
口④③② |--①-|
⑦⑦⑦⑦ |--②③|
⑥口①⑤ |④-⑤-|
口⑦⑦口 |⑥-⑦-|

不確定度: 0

最終更新:2015年08月25日 00:19