Braid & Blade
SHAMDEL

BASIC

Level: 3
BPM: 153
Notes: 249

1
口口口口 |------|
口口口口 |------|
口口口口 |------|
口口口口 |------|
2
①口口② |①-----|
口口口口 |------|
口口口口 |②-----|
口口口口 |------|
3
口口口口 |①-----|
①口口② |------|
口口口口 |②-----|
口口口口 |------|
4
口口口口 |①-----|
口口口口 |------|
口①②口 |②-----|
口口口口 |------|
5
口口口口 |①-----|
口①口口 |------|
口口口口 |------|
口口口口 |------|
6
口①口口 |①-----|
口口②口 |------|
口口口口 |②-----|
口口口口 |------|
7
口口口口 |①-----|
口口口口 |------|
口①口口 |②-----|
口口②口 |------|
8
口口口口 |①-----|
口口口口 |------|
口口②口 |②-----|
口①口口 |------|
9
①①口口 |①-----|
口口②② |------|
口口口口 |②-----|
口口口口 |------|
10
口口②② |①-----|
①①口口 |------|
口口口口 |②-----|
口口口口 |------|
11
口口口口 |①-----|
口口口口 |------|
口口②② |②-----|
①①口口 |------|
12
口口口口 |①-----|
口口口口 |------|
①①口口 |②-----|
口口②② |------|
13
①①口口 |①-----|
口口②② |------|
口口口口 |②-----|
口口口口 |------|
14
口口②② |①-----|
①①口口 |------|
口口口口 |②-----|
口口口口 |------|
15
口口口口 |①-----|
口口口口 |------|
口口②② |②-----|
①①口口 |------|
16
口口口口 |①-----|
口口口口 |------|
①①口口 |②-----|
口口②② |------|
17
口口口④ |①-----|
口口③口 |②-----|
口②口口 |③-----|
①口口口 |④-----|
18
口口口口 |①-----|
口③口口 |②-----|
口口②口 |③-----|
口口口① |------|
19
口④口口 |①-----|
口口③口 |②-----|
口②口口 |③-----|
口口①口 |④-----|
20
口口口① |①-----|
口口口口 |------|
口口口口 |------|
口口口口 |------|
21
①口口口 |①-----|
口②口口 |②-----|
口口③口 |③-----|
口口口④ |④-----|
22
口口口口 |①-----|
口口③口 |②-----|
口②口口 |③-----|
①口口口 |------|
23
口口④口 |①-----|
口③口口 |②-----|
口口②口 |③-----|
口①口口 |④-----|
24
①口口口 |①-----|
口②口口 |②-----|
口口③口 |③-----|
口口口④ |④-----|
25
口口口① |①-----|
口口②口 |②-----|
口③口口 |③-----|
④口口口 |④-----|
26
口①口口 |①-----|
②口口口 |②-----|
③口口口 |③-----|
口④口口 |④-----|
27
口口①口 |①-----|
口口口② |②-----|
口口口③ |③-----|
口口④口 |④-----|
28
口口口④ |①-----|
口口③口 |②-----|
口②口口 |③-----|
①口口口 |④-----|
29
④口口口 |①-----|
口③口口 |②-----|
口口②口 |③-----|
口口口① |④-----|
30
口口④口 |①-----|
口口口③ |②-----|
口口口② |③-----|
口口①口 |④-----|
31
口④口口 |①-----|
③口口口 |②-----|
②口口口 |③-----|
口①口口 |④-----|
32
口口口口 |①-----|
口口①口 |------|
口口口口 |------|
口口口口 |------|
33
口口口口 |------|
口口口口 |------|
口口口口 |------|
口口口口 |------|
34
口口口口 |①-----|
口①口口 |------|
口口口口 |------|
口口口口 |------|
35
④口口④ |①-----|
③口口③ |②-----|
②口口② |③-----|
①口口① |④-----|
36
口①口口 |①-----|
口口②② |------|
口口③③ |②-----|
口口口口 |③-----|
37
口口①口 |①-----|
②②口口 |------|
③③口口 |②-----|
口口口口 |③-----|
38
口①口口 |①-----|
口口口口 |------|
口口②② |②-----|
口口③③ |③-----|
39
口口①口 |①-----|
口口口口 |------|
②②口口 |②-----|
③③口口 |③-----|
40
口①口口 |①-----|
口口②② |------|
口口③③ |②-----|
口口口口 |③-----|
41
口口①口 |①-----|
②②口口 |------|
③③口口 |②-----|
口口口口 |③-----|
42
口①①口 |①-----|
口口口口 |------|
口口口口 |②-----|
口②②口 |------|
43
①口口① |①---②-|
②口口② |--③---|
③口口③ |------|
口口口口 |------|
44
口口口口 |①-----|
①①②② |------|
口口口口 |②-----|
口口口口 |------|
45
口②②口 |①-----|
口口口口 |------|
口①①口 |②-----|
口口口口 |------|
46
口口口口 |①-----|
①①②② |------|
口口口口 |②-----|
口口口口 |------|
47
口①①口 |①-----|
口②②口 |------|
口口口口 |②-----|
口口口口 |------|
48
口口口口 |①-----|
口口口口 |②-----|
①②④③ |③-----|
口口口口 |④-----|
49
口口口口 |①-----|
口口口口 |②-----|
口口口口 |③-----|
①②③口 |------|
50
口口口口 |①-----|
口③④口 |②-----|
口①②口 |③-----|
口口口口 |④-----|
51
口①口口 |①-----|
②口口口 |②-----|
③口口口 |③-----|
口④口口 |④-----|
52
口口口口 |①-----|
②②口口 |------|
口口①① |②-----|
口口口口 |------|
53
口口口口 |①-----|
口口①① |------|
②②口口 |②-----|
口口口口 |------|
54
口口口口 |①-----|
口②②口 |------|
口口口口 |②-----|
口①①口 |------|
55
①口口① |①-----|
口口口口 |------|
口口口口 |------|
口口口口 |------|
56
③④②① |①-----|
口口口口 |②-----|
口口口口 |③-----|
口口口口 |④-----|
57
口口口口 |①-----|
③口②① |②-----|
口口口口 |③-----|
口口口口 |------|
58
口口口口 |①-----|
口口口口 |②-----|
口④③口 |③-----|
口②①口 |④-----|
59
口④③口 |①-----|
口②①口 |②-----|
口口口口 |③-----|
口口口口 |④-----|
60
②口口① |①-----|
④口口③ |②-----|
口口口口 |③-----|
口口口口 |④-----|
61
口口口口 |①-----|
口口口口 |------|
口口①口 |------|
口口口口 |------|
62
①①口口 |------|
口口口口 |------|
口口口口 |①-----|
口口口口 |------|
63
口口口口 |①-----|
②②①① |------|
口口口口 |②-----|
口口口口 |------|
64
口口①① |①-----|
口口口口 |------|
口口口口 |②-----|
②②口口 |------|
65
口口口口 |①-----|
口口口口 |------|
②②①① |②-----|
口口口口 |------|
66
②②口口 |①-----|
口口口口 |------|
口口口口 |②-----|
口口①① |------|
67
口口口口 |①-----|
②②①① |------|
口口口口 |②-----|
口口口口 |------|
68
口口①① |①-----|
口口口口 |------|
口口口口 |②-----|
②②口口 |------|
69
口口口口 |①-----|
口口口口 |------|
②②①① |②-----|
口口口口 |------|
70
口口口口 |①-----|
口②②口 |②-----|
口口口口 |------|
口口①① |------|

不確定度: 0

最終更新:2015年05月24日 19:13