Braid & Blade
SHAMDEL

ADVANCED

Level: 7
BPM: 153
Notes: 509

1
口口口口 |------|
口口口口 |------|
口口口口 |------|
①②口口 |--①-②-|
2
口口⑤口 |①---②-|
⑥④③口 |--③---|
②口口口 |④---⑤-|
口口①口 |--⑥---|
3
口口口口 |①---②-|
口④①口 |--③---|
口②⑥⑤ |④-----|
口口③口 |--⑤-⑥-|
4
口③口口 |①---②-|
口口②口 |--③---|
口①口口
口口口口

口口⑥④
口口口口
口⑤口口 |④---⑤-|
口口口口 |--⑥---|
5
口口口口 |①-----|
口①口口 |------|
②③口口 |------|
口口口口 |--②-③-|
6
口②口口 |①---②-|
口口③口 |--③---|
④⑥①口 |④---⑤-|
口口⑤口 |--⑥---|
7
口口①口 |①---②-|
口②口口 |--③---|
⑤⑥③口 |④-----|
口④口口 |--⑤-⑥-|
8
口④口③ |①---②-|
②口口口 |--③---|
口口①口 |④-----|
口口口⑤ |--⑤---|
9
⑧⑨⑩⑪ |①-②-③-|
口口口口 |④-⑤-⑥-|
④⑤⑥⑦ |⑦---⑧-|
①②③口 |⑨-⑩-⑪-|
10
口口口口 |①---②-|
①⑧⑦⑥ |③-④-⑤-|
⑤④③② |⑥-⑦-⑧-|
口⑪⑩⑨ |⑨-⑩-⑪-|
11
口口口口 |--①-②-|
口⑤⑥口 |③-④-⑤-|
①②③④ |⑥---⑦-|
⑦⑧⑨⑩ |⑧-⑨-⑩-|
12
口④③② |①-②-③-|
①⑤⑥口 |④-⑤-⑥-|
⑦⑧⑨⑩ |⑦-⑧-⑨-|
口口口口 |⑩-----|
13
⑧⑨⑩⑪ |①-②-③-|
口口口口 |④-⑤-⑥-|
④⑤⑥⑦ |⑦---⑧-|
①②③口 |⑨-⑩-⑪-|
14
口口口口 |①---②-|
①⑧⑦⑥ |③-④-⑤-|
⑤④③② |⑥-⑦-⑧-|
口⑪⑩⑨ |⑨-⑩-⑪-|
15
口口口口 |--①-②-|
口⑤⑥口 |③-④-⑤-|
①②③④ |⑥---⑦-|
⑦⑧⑨⑩ |⑧-⑨-⑩-|
16
口④③② |①-②-③-|
①⑤⑥口 |④-⑤-⑥-|
口口口口
口口口口

口⑫口口
口口口口
⑦⑧⑨⑩ |⑦-⑧-⑨-|
口口⑪口 |⑩-⑪-⑫-|
17
口⑤③① |①---②-|
②口口口 |--③---|
⑥口口④ |④---⑤-|
口口口口 |--⑥---|
18
口口①口 |①---②-|
口②口口 |--③---|
口口③口
口口口口

口口口口
⑤⑥口口
口口口口 |④-----|
口④口口 |--⑤-⑥-|
19
②④⑥③ |①---②-|
口口①口 |--③---|
口口⑤口 |④---⑤-|
口口口口 |--⑥---|
20
口口口口 |①-----|
口口口口 |------|
口①口口 |------|
②③口口 |--②-③-|
21
②口口口 |①---②-|
口⑥③口 |--③---|
口④口口 |④---⑤-|
口口①⑤ |--⑥---|
22
口口①口 |①---②-|
②④口口 |--③---|
口口③口 |④-----|
口口⑥⑤ |--⑤-⑥-|
23
③口口口 |①---②-|
口口口② |--③---|
口口口口
口①口口

口口口口
口口④口
口口口口 |④-----|
⑤⑤口口 |⑤-----|
24
口口①① |①-----|
口⑥⑦口 |②-③-④-|
②③④⑤ |⑤---⑥-|
口口口口 |⑦-----|
25
口口口口 |①-②-③-|
④⑤⑥⑦ |④-⑤-⑥-|
口口口口 |⑦-----|
①②③口 |------|
26
口口①① |①-----|
口⑥⑦口 |②-③-④-|
②③④⑤ |⑤---⑥-|
口口口口 |⑦-----|
27
口口口口 |①-②-③-|
口口口口 |④-⑤-⑥-|
⑦⑥⑤④ |⑦-----|
①②③口 |------|
28
口口①① |①-----|
口⑥⑦口 |②-③-④-|
②③④⑤ |⑤---⑥-|
口口口口 |⑦-----|
29
口口口口 |①-②-③-|
④⑤⑥⑦ |④-⑤-⑥-|
口口口口 |⑦-----|
①②③口 |------|
30
口口①① |①-----|
口⑥⑦口 |②-③-④-|
②③④⑤ |⑤---⑥-|
口口口口 |⑦-----|
31
口口口口 |①-②-③-|
口口口口 |④-⑤-⑥-|
⑦⑥⑤④ |⑦-----|
①②③口 |------|
32
口口口口 |①-----|
口口口口 |------|
口口口口 |②-----|
②②①① |------|
33
口口口口 |①-----|
口口口口 |------|
②②①① |②-----|
口口口口 |------|
34
口口口口 |①-----|
②②①① |------|
口口口口 |②-----|
口口口口 |------|
35
⑩口口口 |①-②-③-|
⑦⑧⑨口 |④-⑤-⑥-|
④⑤⑥口 |⑦-⑧-⑨-|
①②③口 |⑩-----|
36
口②③口 |①---②-|
⑦④口⑧ |③-④-⑤-|
口口⑤口 |⑥---⑦-|
口⑥口① |⑧-----|
37
口⑥口口 |①---②-|
⑧口⑤⑦ |③-④-⑤-|
②④口口 |⑥---⑦-|
口口③① |⑧-----|
38
口②③口 |①---②-|
⑧④口⑦ |③-④-⑤-|
口口⑤口 |⑥---⑦-|
口⑥口① |⑧-----|
39
①②③口 |①-②-③-|
口口⑦口 |④-⑤-⑥-|
口⑥⑤④ |⑦-----|
口口口口 |------|
40
口②③口 |①---②-|
⑦④口⑧ |③-④-⑤-|
口口⑤口 |⑥---⑦-|
口⑥口① |⑧-----|
41
口⑥口口 |①---②-|
⑧口⑤⑦ |③-④-⑤-|
②④口口 |⑥---⑦-|
口口③① |⑧-----|
42
④④③③ |①---②-|
口口口口 |------|
口口口口 |③---④-|
②②①① |------|
43
口口口口 |①---②-|
口③③口 |--③---|
口②②口 |------|
口①①口 |------|
44
①口口② |①---②-|
①③④② |------|
口③④口 |③---④-|
口口口口 |------|
45
③口口③ |----①-|
②④④② |--②---|
①④④① |③-----|
口口口口 |④-----|
46
③③④④ |①---②-|
口口口口 |------|
口口口口 |③---④-|
①①②② |------|
47
口口口口 |①-----|
①口③口 |②-----|
口②口④ |③-----|
⑤⑥口口 |④-⑤-⑥-|
48
⑥②口口 |①---②-|
口口③口 |--③---|
口口⑤口 |④---⑤-|
④口①口 |--⑥---|
49
⑤⑥①口 |①---②-|
口②口口 |--③---|
口④口口 |④-----|
口口③口 |--⑤-⑥-|
50
口口①口 |①---②-|
口④③口 |--③---|
②口口口 |④-----|
口口口⑤ |⑤-----|
51
②②口口 |①-----|
①口③③ |②---③-|
④④口口 |--④---|
口口⑤⑤ |⑤-----|
52
口口口口 |①-----|
口①②口 |------|
口②①口 |②-----|
口口口口 |------|
53
①口口① |①---②-|
①口口① |--③---|
口③③口
口②②口

口④④口
⑤口口⑤
口口口口 |④-----|
口口口口 |⑤-----|
54
口口④⑥ |①---②-|
口③口口 |--③---|
⑤口②口 |④---⑤-|
①口口口 |--⑥---|
55
口口口口 |①-----|
⑤⑥口口 |②-----|
口②口④ |③-----|
①口③口 |④-⑤-⑥-|
56
②⑥口口 |①---②-|
口口①③ |--③---|
口口⑤口 |④---⑤-|
口④口口 |--⑥---|
57
口口①口 |①---②-|
口②口口 |--③---|
口④口③ |④-----|
口口⑥⑤ |--⑤-⑥-|
58
口③⑥口 |①---②-|
口⑤②口 |--③---|
口口口口 |④---⑤-|
口①口④ |--⑥---|
59
③口口④ |①---②-|
口⑤口② |--③---|
①口⑥口 |④---⑤-|
口口口口 |--⑥---|
60
口③口④ |①---②-|
口口②口 |--③---|
⑤口⑤口 |④-----|
①口口口 |⑤-----|
61
①口①口 |①-----|
口口口口 |------|
口口口口 |------|
口口口口 |------|
62
口口口口 |------|
口①①口 |------|
②③④口 |①-----|
口口口口 |②-③-④-|
63
②③④⑤ |①---②-|
口口口口 |③-④-⑤-|
口口口①
口口口口

口口口口
⑥口口口
⑩⑨⑧⑦ |⑥---⑦-|
口口口口 |⑧-⑨-⑩-|
64
口口口口 |①-②-③-|
口③②① |④-⑤-⑥-|
口口口口
口⑥⑤④

口口口口
口⑪口口
⑦⑧⑨⑩ |--⑦-⑧-|
口口口口 |⑨-⑩-⑪-|
65
口口口口 |①---②-|
口口①口 |③-④-⑤-|
口口口口
②③④⑤

口⑨⑧⑦
⑥⑩⑪口
口口口口 |⑥-⑦-⑧-|
口口口口 |⑨-⑩-⑪-|
66
口口口口 |①-②-③-|
口口口口 |④-----|
①②③④
口口口口

口口口口
口口口口
⑧⑨⑩口 |⑤-⑥-⑦-|
⑤⑥⑦口 |⑧-⑨-⑩-|
67
②③④⑤ |①---②-|
口口口口 |③-④-⑤-|
口口口①
口口口口

口口口口
⑥口口口
⑩⑨⑧⑦ |⑥---⑦-|
口口口口 |⑧-⑨-⑩-|
68
口口口口 |①-②-③-|
口③②① |④-⑤-⑥-|
口口口口
口⑥⑤④

口口口口
口⑪口口
⑦⑧⑨⑩ |--⑦-⑧-|
口口口口 |⑨-⑩-⑪-|
69
口口口口 |①---②-|
口口①口 |③-④-⑤-|
口口口口
②③④⑤

口⑨⑧⑦
⑥⑩⑪口
口口口口 |⑥-⑦-⑧-|
口口口口 |⑨-⑩-⑪-|
70
口口口口 |①-②-③-|
口口口口 |④-----|
口②口④ |------|
①口③口 |------|

不確定度: 0

最終更新:2015年05月24日 19:13