Two Pianists
小野秀幸

BASIC

Level: 4
BPM: 178
Notes: 304

1
口口口口 |----|
口口口口 |----|
口口口口 |----|
口口口口 |----|
2
口②①口 |①--②|
口④③口 |----|
口口口口 |----|
口口口口 |③--④|
3
口口口口 |----|
口口口③ |①---|
口口口② |②---|
口口口① |③---|
4
口②①口 |①--②|
口④③口 |----|
口口口口 |----|
口口口口 |③--④|
5
口口口① |----|
口口口② |①---|
口口口③ |②---|
口口口口 |③---|
6
口②①口 |①--②|
口④③口 |----|
口口口口 |----|
口口口口 |③--④|
7
口口口口 |----|
口口口口 |①---|
①③口口 |②---|
口②口口 |③---|
8
口口口③ |①---|
②④④② |②---|
口口口口 |③---|
口口①口 |④---|
9
口①口口 |①---|
口口口口 |②---|
口④③② |③---|
口口口口 |④---|
10
口口口口 |①---|
口口口口 |----|
①口口口 |----|
口口口口 |----|
11
口口口口 |①---|
④③②① |②---|
口口口口 |③---|
口口口口 |④---|
12
④③②① |①---|
口口口口 |②---|
口口口口 |③---|
口口口口 |④---|
13
口口口口 |①---|
口口①口 |--②-|
口口②口 |----|
口口③口 |③---|
14
口口口口 |①---|
口①口口 |--②-|
口②口口 |----|
口③口口 |③---|
15
口口口口 |①---|
②口口② |--②-|
①口口① |----|
口口口口 |----|
16
口口口口 |①---|
口口口口 |--②-|
口①①口 |----|
口②②口 |----|
17
口口口口 |①---|
口口①口 |--②-|
口口②口 |----|
口口③口 |③---|
18
口口口口 |①---|
口①口口 |--②-|
口②口口 |----|
口③口口 |③---|
19
口口口口 |①---|
②口口② |--②-|
①口口① |----|
口口口口 |----|
20
口口口口 |①---|
口口口口 |--②-|
口①①口 |----|
口②②口 |----|
21
口口口口 |①---|
口口①口 |--②-|
口口②口 |----|
口口③口 |③---|
22
口口口口 |①---|
口①口口 |--②-|
口②口口 |----|
口③口口 |③---|
23
口口口口 |①---|
②口口② |--②-|
①口口① |----|
口口口口 |----|
24
口口口口 |①---|
口口口口 |--②-|
口①①口 |----|
口②②口 |----|
25
口口口口 |①---|
口口①口 |--②-|
口口②口 |----|
口口③口 |③---|
26
口口口口 |①---|
口①口口 |--②-|
口②口口 |----|
口③口口 |③---|
27
口口口口 |①---|
②口口② |--②-|
①口口① |----|
口口口口 |----|
28
③口口③ |①-②-|
口②①口 |--③-|
口口口口 |----|
口口口口 |----|
29
口口口口 |①---|
②口口口 |----|
③①①口 |②---|
口口口口 |③---|
30
口口口口 |①---|
口口口口 |②---|
口口口口 |③---|
①②③④ |④---|
31
口口口② |①---|
口口口③ |②---|
口①①口 |--③-|
口口口口 |----|
32
口口口口 |①---|
口口②口 |--②-|
口口口① |----|
口口口口 |----|
33
口口口口 |①---|
口口口② |----|
口①①③ |②---|
口口口口 |③---|
34
口口口口 |①---|
口口口口 |②---|
口口口口 |③---|
④③②① |④---|
35
口口④口 |①---|
口③②口 |②---|
口①①口 |③---|
口口口口 |④---|
36
口①口口 |①---|
口口口口 |----|
口口口口 |----|
口口口口 |----|
37
①①①① |①---|
口②②口 |--②-|
口③③口 |--③-|
口④④口 |--④-|
38
口口口口 |----|
口口口口 |①---|
②口口② |②---|
①口口①
39
口口口口 |①---|
①②②① |--②-|
口③③口 |--③-|
口④④口 |--④-|
40
口口口口 |----|
口口口口 |①---|
②口口② |②---|
①口口①
41
口口口口 |-①--|
口②①口 |②--③|
口④③口 |--④-|
口⑤⑤口 |--⑤-|
42
口口口口 |----|
口①①口 |----|
口口口口 |①---|
口口口口 |----|
43
口口口④ |①---|
③口口③ |②---|
口口口② |③---|
①口口① |④---|
44
口口口口 |①---|
口③口口 |②-③-|
口口②口 |----|
口①①口 |----|
45
口口口④ |①---|
③口口③ |②---|
口口口② |③---|
①口口① |④---|
46
口口口口 |①---|
口③口口 |②-③-|
口口②口 |----|
口①①口 |----|
47
①口口④ |①---|
口口口③ |②---|
③口口② |③---|
口口口① |④---|
48
口④③口 |①---|
口②①口 |②---|
口①②口 |③---|
口③④口 |④---|
49
口口口口 |①---|
①②②① |--②-|
①②②① |----|
口口口口 |----|
50
口口①口 |①---|
口②口口 |②---|
口口③口 |③---|
口④口口 |④---|
51
口口口④ |①---|
③口口③ |②---|
口口口② |③---|
①口口① |④---|
52
口口口口 |①---|
口③口口 |②-③-|
口口②口 |----|
口①①口 |----|
53
口口口④ |①---|
③口口③ |②---|
口口口② |③---|
①口口① |④---|
54
口口口口 |①---|
口③口口 |②-③-|
口口②口 |----|
口①①口 |----|
55
①口口④ |①---|
口口口③ |②---|
③口口② |③---|
口口口① |④---|
56
口④③口 |①---|
口②①口 |②---|
口①②口 |③---|
口③④口 |④---|
57
口口口口 |①---|
①②②① |--②-|
①②②① |----|
口口口口 |----|
58
口④口口 |①---|
口口③口 |②---|
口②口口 |③---|
口口①口 |④---|
59
①口口① |①---|
口②②口 |--②-|
口口口口 |----|
口口口口 |----|
60
口口口口 |--①-|
口口口口 |----|
口②①口 |②---|
③口口③ |③---|
61
口口口口 |----|
口②②口 |①---|
①口口① |--②-|
口口口口 |----|
62
口②①口 |----|
口口口口 |①---|
口口口口 |----|
口口口口 |②---|
63
口口口口 |①---|
①口口① |--②-|
②口口② |----|
③口口③ |③---|
64
②口口② |--①-|
③口口③ |----|
口口口口 |②---|
口①①口 |③---|
65
口②②口 |①---|
口③③口 |--②-|
①口口① |----|
口口口口 |③---|
66
口③②口 |--①-|
口口口口 |----|
口①①口 |②-③-|
口口口口 |----|
67
①口口① |①---|
②口口② |--②-|
③口口③ |----|
口口口口 |③---|
68
口口口口 |--①-|
口口口口 |----|
口③②口 |②-③-|
①口口① |----|
69
口口口口 |----|
①①①① |①---|
口口口口 |----|
口口口口 |----|
70
口口口口 |----|
口口口口 |----|
口口口口 |----|
口口口口 |----|
71
口④口口 |①---|
口口③口 |②---|
口②口口 |③---|
口口①口 |④---|

不確定度: 0

最終更新:2015年05月24日 19:12