Two Pianists
小野秀幸

ADVANCED

Level: 8
BPM: 178
Notes: 512

1
口口口口 |----|
口口口口 |----|
口口口口 |----|
口口口口 |----|
2
口口口口 |①--②|
③①③① |----|
④②④② |----|
口口口口 |③--④|
3
③④口口 |----|
口口口口 |①-②-|
口口⑥⑤ |③-④-|
口口②① |⑤-⑥-|
4
③口③口 |①--②|
口①口① |----|
④口④口 |----|
口②口② |③--④|
5
口口口① |----|
③口②口 |①-②-|
口④口⑤ |③-④-|
口口⑥口 |⑤-⑥-|
6
③口③口 |①--②|
口①口① |----|
④口④口 |----|
口②口② |③--④|
7
口口口① |----|
口②口① |①---|
口②口③ |②---|
口口口③ |③---|
8
口口口口 |①---|
口⑤②口 |②-③-|
①⑥③口 |④---|
①口④口 |⑤-⑥-|
9
②口口② |①---|
③口口③ |②---|
④口口④ |③---|
口①口口 |④---|
10
口口口口 |①---|
口口口口 |----|
口口口口 |----|
①①①① |----|
11
口⑧⑦口 |①-②-|
口⑥⑤口 |③-④-|
口④③口 |⑤-⑥-|
口②①口 |⑦-⑧-|
12
⑧口口⑦ |①-②-|
⑥口口⑤ |③-④-|
④口口③ |⑤-⑥-|
②口口① |⑦-⑧-|
13
③①①口 |①---|
口口①③ |--②-|
②②③② |----|
口口口口 |③---|
14
③①口① |①---|
口①口口 |--②-|
③口③口 |----|
②口②② |③---|
15
口口①口 |①---|
口①②① |--②-|
口②口口 |----|
口②口口 |----|
16
②②口② |①---|
口口口口 |--②-|
口口口口 |----|
①口①① |----|
17
口口③③ |①---|
口①①口 |--②-|
②③口① |----|
②口②口 |③---|
18
②①口口 |①---|
①口③② |--②-|
口口口② |----|
③③口① |③---|
19
②口①① |①---|
口②口口 |--②-|
口①②口 |----|
口口口口 |----|
20
②②口② |①---|
口口口口 |--②-|
口口口口 |----|
①口①① |----|
21
口口⑧⑦ |①-②-|
⑤⑥口口 |③-④-|
口口④③ |⑤-⑥-|
①②口口 |⑦-⑧-|
22
①②口口 |①-②-|
口口④③ |③-④-|
⑤⑥口口 |⑤-⑥-|
口口⑧⑦ |⑦-⑧-|
23
口口②② |①---|
①②口口 |--②-|
口口①口 |----|
①口口口 |----|
24
口口②口 |①---|
口②口口 |--②-|
口口①② |----|
①①口口 |----|
25
①②口口 |①-②-|
⑤⑥口口 |③-④-|
口口⑧⑦ |⑤-⑥-|
口口④③ |⑦-⑧-|
26
口口⑧⑦ |①-②-|
口口④③ |③-④-|
①②口口 |⑤-⑥-|
⑤⑥口口 |⑦-⑧-|
27
②口口口 |①---|
口①②② |--②-|
口①①口 |----|
口口口口 |----|
28
③口口③ |①-②-|
③口口③ |--③-|
②①①② |----|
④口口④ |④---|
29
口①①口 |①---|
口口口口 |----|
口⑤③口 |②-③-|
口④②口 |④-⑤-|
30
①③③② |--①-|
③②①③ |--②-|
口口口口 |--③-|
口口口口 |----|
31
口口口② |①---|
口口口口 |②---|
③口口口 |--③-|
①①①① |----|
32
口口口口 |①---|
口②②口 |--②-|
口口口口 |----|
口口口① |----|
33
口①①口 |①---|
口口口口 |----|
口⑤③口 |②-③-|
口④②口 |④-⑤-|
34
①③③② |--①-|
③②①③ |--②-|
口口口口 |--③-|
口口口口 |----|
35
口⑦⑥口 |①---|
口⑤④口 |②-③-|
口③②口 |④-⑤-|
①①①① |⑥-⑦-|
36
口口口口 |①---|
①口口① |----|
口口口口 |----|
口口口口 |----|
37
口口②口 |①---|
口②口② |--②-|
口口口口
①①①①

③口口口
④口③口
③口口④ |--③-|
口口④口 |--④-|
38
口②口口 |----|
口口②口 |①---|
口口①口 |②---|
①①口②
39
①口②口 |①---|
口①口① |--②-|
口②②口
口口口口

④口口④
口口③④
口口口口 |--③-|
③③口口 |--④-|
40
口②①口 |----|
口①口口 |①---|
①口口口 |②---|
口口②②
41
②⑥⑤① |-①--|
②④③① |②--③|
口④③口 |--④-|
口口口口 |--⑤⑥|
42
⑤口口① |----|
⑥口口② |----|
⑦口口③ |①②③④|
⑧口口④ |⑤⑥⑦⑧|
43
口⑥⑤口 |①-②-|
口⑧⑦口 |③-④-|
口④③口 |⑤-⑥-|
口②①口 |⑦-⑧-|
44
口口口口 |①-②-|
④口口① |③-④-|
②口口③ |----|
口⑤⑤口 |⑤---|
45
⑥②①⑤ |①-②-|
⑧④③⑦ |③-④-|
口口口口 |⑤-⑥-|
口口口口 |⑦-⑧-|
46
口口口口 |①-②-|
口口口口 |③-④-|
口④②口 |----|
③⑤⑤① |⑤---|
47
④③②① |①-②-|
⑤⑥⑦⑧ |③-④-|
口口口口 |⑤-⑥-|
口口口口 |⑦-⑧-|
48
口④③口 |①---|
③口口④ |②---|
①口口② |③---|
口②①口 |④---|
49
②口口② |①---|
口①①口 |--②-|
②①①② |----|
口口口口 |----|
50
口口口口 |①-②-|
①⑦③⑤ |③-④-|
⑧②⑥④ |⑤-⑥-|
口口口口 |⑦-⑧-|
51
口口口口 |①-②-|
口口口口 |③-④-|
⑧⑥⑤⑦ |⑤-⑥-|
④②①③ |⑦-⑧-|
52
口口口口 |①-②-|
④②①③ |③-④-|
口口口口 |----|
口⑤⑤口 |⑤---|
53
①口口④ |①-②-|
⑤②③⑧ |③-④-|
口⑥⑦口 |⑤-⑥-|
口口口口 |⑦-⑧-|
54
口口口口 |①-②-|
口口口口 |③-④-|
①口口② |----|
③⑤⑤④ |⑤---|
55
口②①口 |①-②-|
口④③口 |③-④-|
⑧口口⑦ |⑤-⑥-|
⑥口口⑤ |⑦-⑧-|
56
口①②口 |①---|
②口口① |②---|
口③④口 |③---|
④口口③ |④---|
57
②口口② |①---|
口①①口 |--②-|
②口口② |----|
口①①口 |----|
58
口口口口 |①-②-|
①⑦③⑤ |③-④-|
⑧②⑥④ |⑤-⑥-|
口口口口 |⑦-⑧-|
59
口口①① |①---|
①口口口 |--②-|
口②口口 |----|
③②②③ |③---|
60
⑥②①口 |--①-|
⑥④③⑥ |②-③-|
口口⑤口 |④-⑤-|
口口口口 |⑥---|
61
口①①① |----|
②口口口 |①---|
②口口口 |--②-|
口口②口 |----|
62
口⑦⑥口 |①---|
口⑤④口 |②-③-|
口③②口 |④-⑤-|
①口口① |⑥-⑦-|
63
①口口① |①---|
口口②① |--②-|
②②口③ |----|
口③口③ |③---|
64
②①①口 |--①-|
口①③② |----|
口口②口 |②---|
③③口口 |③---|
65
口①③① |①---|
②③口③ |--②-|
②口②① |----|
口口口口 |③---|
66
口口口口 |--①-|
口口口口 |----|
③②②③ |②-③-|
①①①口 |----|
67
口①①③ |①---|
口③口① |--②-|
口口②③ |----|
②②口口 |③---|
68
①①口口 |--①-|
口口口口 |----|
③②②③ |②-③-|
口口①口 |----|
69
①①①① |----|
口口口口 |①---|
口口口口 |----|
口口口口 |----|
70
口口口口 |----|
口口口口 |----|
口口口口 |----|
口口口口 |----|
71
口⑧⑦口 |①-②-|
口⑥⑤口 |③-④-|
口④③口 |⑤-⑥-|
口②①口 |⑦-⑧-|

不確定度: 0

最終更新:2015年05月24日 19:12