EXORCISM
SOUND HOLIC feat. Nana Takahashi

BASIC

Level: 4
BPM: 190
Notes: 296

1
口口口口 |----|
口口口口 |----|
口口口口 |----|
口口口口 |----|
2
口口口口 |①---|
口①②口 |----|
口口口口 |②---|
口口口口 |----|
3
口口口口 |①---|
口口口口 |----|
口②①口 |②---|
口口口口 |----|
4
口口口口 |①---|
口①②口 |----|
口口口口 |②---|
口口口口 |----|
5
口口口口 |①---|
口口口口 |----|
口②①口 |②---|
口口口口 |----|
6
①口口② |①---|
③口口④ |②---|
口口口口 |③---|
口口口口 |④---|
7
口口口口 |①---|
口口口口 |②---|
①口口② |③---|
③口口④ |④---|
8
口①②口 |①---|
口③④口 |②---|
口口口口 |③---|
口口口口 |④---|
9
口口口口 |①---|
口口口口 |②---|
口①②口 |③---|
口③④口 |④---|
10
①口口② |①---|
③口口④ |②---|
口口口口 |③---|
口口口口 |④---|
11
口口口口 |①---|
口口口口 |②---|
①口口② |③---|
③口口④ |④---|
12
口①②口 |①---|
口③④口 |②---|
口口口口 |③---|
口口口口 |④---|
13
口口口口 |①---|
口口口口 |②---|
口①②口 |③---|
口③④口 |④---|
14
口口口口 |①---|
口①①口 |----|
口口口口
口口口口
15
口口口口 |①---|
口口口口 |----|
①口口口 |②---|
口②口口 |----|
16
口口口口 |①---|
口口口口 |----|
口口①口 |②---|
口口口② |----|
17
口口口口 |①---|
口口口口 |----|
口口口① |②---|
口口②口 |----|
18
口口口口 |①---|
口口口口 |----|
口①口口 |②---|
②口口口 |----|
19
①口口② |①---|
③口口④ |②---|
口口口口 |③---|
口口口口 |④---|
20
口口口口 |①---|
口口口口 |②---|
①口口② |③---|
③口口④ |④---|
21
口①②口 |①---|
口③④口 |②---|
口口口口 |③---|
口口口口 |④---|
22
口口口口 |①---|
口口口口 |②---|
口①②口 |③---|
口③④口 |④---|
23
口口口口 |①---|
①口口口 |----|
口②口口 |②---|
口口口口 |----|
24
口口口口 |①---|
口口①口 |----|
口口口② |②---|
口口口口 |----|
25
口口口口 |①---|
口口口① |----|
口口②口 |②---|
口口口口 |----|
26
口口口口 |①---|
口①口口 |----|
②口口口 |②---|
口口口口 |----|
27
①口口② |①---|
③口口④ |②---|
口口口口 |③---|
口口口口 |④---|
28
口口口口 |①---|
口口口口 |②---|
①口口② |③---|
③口口④ |④---|
29
口①②口 |①---|
口③④口 |②---|
口口口口 |③---|
口口口口 |④---|
30
口口口口 |①---|
口口口口 |②---|
口①②口 |③---|
口③④口 |④---|
31
口口口口 |①---|
①①口口 |----|
口口口口 |----|
口口口口 |----|
32
口口口口 |----|
口口口口 |----|
口口①① |①---|
口口口口 |----|
33
口口①① |①---|
口口口口 |----|
口口口口 |----|
口口口口 |----|
34
口口口口 |----|
口口口口 |----|
①①口口 |①---|
口口口口 |----|
35
①①②② |①---|
口口口口 |----|
口口口口 |②---|
口口口口 |----|
36
口口口口 |①---|
口②②口 |----|
口口①① |②---|
口口口口 |----|
37
①口口① |①---|
口口口口 |----|
口口口口 |----|
口口口口 |----|
38
口口口口 |----|
口口口口 |----|
口口口口 |----|
口口口口 |----|
39
口②③口 |①---|
①口口④ |②---|
口口口口 |③---|
口口口口 |④---|
40
口口口口 |①---|
口口口口 |②---|
④口口① |③---|
口③②口 |④---|
41
口口口口 |①---|
口①②口 |②---|
口③④口 |③---|
口口口口 |④---|
42
口口口口 |①---|
口口口口 |②---|
口口口口 |③---|
③①②口 |----|
43
口③③口 |①---|
口②②口 |--②-|
口①①口 |----|
口口口口 |--③-|
44
①口口① |----|
口口口口 |--①-|
口口口口 |----|
口口口口 |----|
45
口口口口 |①---|
口①②口 |②---|
口③④口 |③---|
口口口口 |④---|
46
口口口口 |①---|
口口口口 |----|
口口口口 |----|
口①口口 |----|
47
口口口① |①---|
口口②口 |②---|
口③口口 |③---|
④口口口 |④---|
48
口口口口 |①---|
口②③口 |②---|
口④①口 |③---|
口口口口 |④---|
49
口口口口 |①---|
②口口③ |②---|
④口口① |③---|
口口口口 |④---|
50
口④口口 |①---|
口口③口 |②---|
口②口口 |③---|
口口①口 |④---|
51
口口①口 |①---|
口口口口 |----|
口口口口 |----|
口口口口 |----|
52
口口口口 |①---|
①①口口 |----|
口口口口 |----|
口口口口 |----|
53
口口①① |①---|
口口②② |----|
口口口口 |②---|
口口口口 |----|
54
口口口口 |①---|
口口口口 |----|
口口①① |②---|
口口②② |----|
55
口口口口 |①---|
口③②口 |②---|
口①④口 |③---|
口口口口 |④---|
56
口③④口 |①---|
②口口口 |②---|
①口口口 |③---|
口口口口 |④---|
57
口口口口 |①---|
口口口① |②---|
口口口② |③---|
口④③口 |④---|
58
口口口口 |①---|
口③④口 |②---|
口①②口 |③---|
口口口口 |④---|
59
口①口口 |①---|
口口口口 |----|
口口口口 |----|
口口口口 |----|
60
口口口口 |----|
口口口口 |----|
口口口口 |----|
口口口口 |----|
61
①①口口 |①---|
②②口口 |----|
口口口口 |②---|
口口口口 |----|
62
口口口口 |①---|
口口口口 |----|
①①口口 |②---|
②②口口 |----|
63
口口口口 |①---|
口口口口 |----|
口口①① |----|
口口口口 |----|
64
口口口口 |----|
口口口口 |----|
口口口口 |----|
口口口口 |----|
65
口口口口 |①---|
①②③④ |②---|
口口口口 |③---|
口口口口 |④---|
66
口口口口 |①---|
口口口口 |②---|
①②③④ |③---|
口口口口 |④---|
67
口口口口 |①---|
口口口口 |②---|
口口口口 |③---|
①②③④ |④---|
68
口口口口 |①---|
口口口口 |②---|
①②③④ |③---|
口口口口 |④---|
69
口口口口 |①---|
①②③④ |②---|
口口口口 |③---|
口口口口 |④---|
70
①②③④ |①---|
口口口口 |②---|
口口口口 |③---|
口口口口 |④---|
71
口口口口 |①---|
口①口口 |----|
口口口口 |----|
口口口口 |----|
72
口口口口 |①---|
口口①口 |----|
口口口口 |----|
口口口口 |----|
73
口口口口 |①---|
口口口口 |----|
口①口口 |----|
②口口② |--②-|
74
③④④③ |--①-|
②口口② |--②-|
①口口① |--③-|
口口口口 |--④-|
75
口口口口 |----|
口口口口 |----|
口口口口 |----|
口口口口 |----|
76
口口口口 |①---|
①①口口 |----|
口口口口 |----|
口口口口 |----|
77
口口①① |①---|
口口②② |----|
口口口口 |②---|
口口口口 |----|
78
口口口口 |①---|
口口口口 |----|
口口①① |②---|
口口②② |----|
79
口口口口 |①---|
口③②口 |②---|
口①④口 |③---|
口口口口 |④---|
80
口③④口 |①---|
②口口口 |②---|
①口口口 |③---|
口口口口 |④---|
81
口口口口 |①---|
口口口① |②---|
口口口② |③---|
口④③口 |④---|
82
口口口口 |①---|
口③④口 |②---|
口①②口 |③---|
口口口口 |④---|
83
口①口口 |①---|
口口口口 |----|
口口口口 |----|
口口口口 |----|
84
口口口口 |----|
口口口口 |----|
口口口口 |----|
口口口口 |----|
85
①①口口 |①---|
②②口口 |----|
口口口口 |②---|
口口口口 |----|
86
口口口口 |①---|
口口口口 |----|
①①口口 |②---|
②②口口 |----|
87
口口口口 |①---|
口口口口 |----|
口口①① |----|
口口口口 |----|
88
口口口口 |----|
口口口口 |----|
口口口口 |----|
口口口口 |----|
89
①口口② |①---|
③口口④ |②---|
口口口口 |③---|
口口口口 |④---|
90
口口口口 |①---|
口口口口 |②---|
①口口② |③---|
③口口④ |④---|
91
口①②口 |①---|
口③④口 |②---|
口口口口 |③---|
口口口口 |④---|
92
口口口口 |①---|
口口口口 |②---|
口①②口 |③---|
口③④口 |④---|
93
①口口② |①---|
③口口④ |②---|
口口口口 |③---|
口口口口 |④---|
94
口口口口 |①---|
口口口口 |②---|
①口口② |③---|
③口口④ |④---|
95
口①②口 |①---|
口③④口 |②---|
口口口口 |③---|
口口口口 |④---|
96
口口口口 |①---|
口口口口 |②---|
口①②口 |③---|
口③④口 |④---|

不確定度: 0

最終更新:2015年05月24日 19:12