EXORCISM
SOUND HOLIC feat. Nana Takahashi

ADVANCED

Level: 7
BPM: 190
Notes: 534

1
口口口口 |----|
口口口口 |----|
口口口口 |----|
口口口口 |----|
2
口口口口 |①---|
口①②口 |②---|
口④③口 |③---|
口口口口 |④---|
3
口口口口 |①---|
口①②口 |②---|
口④③口 |③---|
口口口口 |④---|
4
口口口口 |①---|
口①②口 |②---|
口④③口 |③---|
口口口口 |④---|
5
口口口口 |①---|
口①②口 |②---|
口④③口 |③---|
口口口口 |④---|
6
①口口⑧ |①-②-|
⑦口口② |③-④-|
③口口⑥ |⑤-⑥-|
⑤口口④ |⑦-⑧-|
7
口①⑧口 |①-②-|
口⑦②口 |③-④-|
口③⑥口 |⑤-⑥-|
口⑤④口 |⑦-⑧-|
8
①口口⑧ |①-②-|
⑦口口② |③-④-|
③口口⑥ |⑤-⑥-|
⑤口口④ |⑦-⑧-|
9
口①⑧口 |①-②-|
口⑦②口 |③-④-|
口③⑥口 |⑤-⑥-|
口⑤④口 |⑦-⑧-|
10
①口口⑧ |①-②-|
⑦口口② |③-④-|
③口口⑥ |⑤-⑥-|
⑤口口④ |⑦-⑧-|
11
口①⑧口 |①-②-|
口⑦②口 |③-④-|
口③⑥口 |⑤-⑥-|
口⑤④口 |⑦-⑧-|
12
①口口⑧ |①-②-|
⑦口口② |③-④-|
③口口⑥ |⑤-⑥-|
⑤口口④ |⑦-⑧-|
13
口①⑧口 |①-②-|
口⑦②口 |③-④-|
口③⑥口 |⑤-⑥-|
口⑤④口 |⑦-⑧-|
14
口口口口 |----|
口口口口 |----|
口口口口
口口口口
15
口④⑤口 |①---|
①②口① |②---|
口口③口 |③---|
口口口口 |④-⑤-|
16
口口口④ |--①-|
口口口③ |--②-|
口口口② |--③-|
口口口① |--④-|
17
①口口口 |①---|
口口②口 |②-③-|
⑥③口⑤ |④---|
口口④口 |⑤-⑥-|
18
口口②口 |----|
口③口口 |①---|
口口④口 |②---|
口①口口 |③-④-|
19
①口口⑧ |①-②-|
⑦口口② |③-④-|
③口口⑥ |⑤-⑥-|
⑤口口④ |⑦-⑧-|
20
口①⑧口 |①-②-|
口⑦②口 |③-④-|
口③⑥口 |⑤-⑥-|
口⑤④口 |⑦-⑧-|
21
①口口⑧ |①-②-|
⑦口口② |③-④-|
③口口⑥ |⑤-⑥-|
⑤口口④ |⑦-⑧-|
22
口①⑧口 |①-②-|
口⑦②口 |③-④-|
口③⑥口 |⑤-⑥-|
口⑤④口 |⑦-⑧-|
23
口⑤④口 |①---|
①口②① |②---|
口③口口 |③---|
口口口口 |④-⑤-|
24
④口口口 |--①-|
③口口口 |--②-|
②口口口 |--③-|
①口口口 |--④-|
25
口口口① |①---|
口②口口 |②-③-|
⑤口③⑥ |④---|
口④口口 |⑤-⑥-|
26
口③口口 |----|
口口②口 |①---|
口④①口 |②---|
口口口口 |③-④-|
27
①口口⑧ |①-②-|
⑦口口② |③-④-|
③口口⑥ |⑤-⑥-|
⑤口口④ |⑦-⑧-|
28
口①⑧口 |①-②-|
口⑦②口 |③-④-|
口③⑥口 |⑤-⑥-|
口⑤④口 |⑦-⑧-|
29
①口口⑧ |①-②-|
⑦口口② |③-④-|
③口口⑥ |⑤-⑥-|
⑤口口④ |⑦-⑧-|
30
口①⑧口 |①-②-|
口⑦②口 |③-④-|
口③⑥口 |⑤-⑥-|
口⑤④口 |⑦-⑧-|
31
①口口口 |----|
口口口② |①---|
口③④口 |②---|
口口口口 |③-④-|
32
口③④口 |----|
口口②口 |①---|
口口口口 |②---|
口口口① |③-④-|
33
口④③口 |----|
口②口口 |①---|
口口口口 |②---|
①口口口 |③-④-|
34
口口口① |----|
口口口口 |①---|
口口②口 |②---|
口③④口 |③-④-|
35
①口口口 |----|
口口口口 |①---|
口②口口 |②---|
口④③口 |③-④-|
36
口④③口 |----|
口②口口 |①---|
口口口口 |②---|
口口口① |③-④-|
37
口③④口 |----|
口口②口 |①---|
口口口口 |②---|
①口口口 |③-④-|
38
口口①① |----|
口口口口 |----|
口口口口 |----|
口口口口 |--①-|
39
口口口口 |--①-|
口①④口 |②-③-|
口⑤②口 |--④-|
口③⑥口 |⑤-⑥-|
40
④④口口 |--①-|
①口口口 |②-③-|
口口口② |----|
③口口口 |--④-|
41
口口口口 |--①-|
口④①口 |②-③-|
口②⑤口 |--④-|
口⑥③口 |⑤-⑥-|
42
口①②口 |----|
口口口口 |--①-|
口口口口 |②---|
口③③口 |--③-|
43
口口口口 |----|
口②②口 |--①-|
口①①口 |----|
口口口口 |--②-|
44
①口口② |----|
口③口口 |①-②-|
口口④口 |----|
口口口口 |③-④-|
45
口口口口 |----|
口口口口 |----|
口口口口 |----|
口口口口 |----|
46
③③④④ |----|
口口口口 |①---|
②口口② |②---|
①口口① |③-④-|
47
⑦口口口 |--①-|
口①⑥口 |②-③-|
口⑤②口 |④-⑤-|
口③④口 |⑥-⑦-|
48
口⑤口⑥ |--①-|
口①口口 |②-③-|
口口口② |④-⑤-|
③口口④ |--⑥-|
49
⑥口口口 |--①-|
口②①口 |②-③-|
口④③口 |④-⑤-|
口口⑤口 |--⑥-|
50
口口口① |--①-|
口④④口 |--②-|
口口口口 |--③-|
③口口② |--④-|
51
③③口口 |----|
口口口口 |----|
口口②口 |--①-|
口①口口 |②-③-|
52
口口口口 |----|
口口口口 |----|
口口口口 |----|
口口口口 |----|
53
①①①① |①---|
②②②② |--②-|
③③③③ |----|
口口口口 |③---|
54
④口口口 |①---|
口口③口 |----|
口②口口 |--②-|
①①①① |③-④-|
55
口⑦口口 |--①-|
口①⑥口 |②-③-|
口⑤②口 |④-⑤-|
口③④口 |⑥-⑦-|
56
口口⑦口 |--①-|
口⑥口① |②-③-|
②口⑤口 |④-⑤-|
口④口③ |⑥-⑦-|
57
①口口② |--①-|
③口口④ |②-③-|
⑤口口⑥ |④-⑤-|
⑦口口口 |⑥-⑦-|
58
①口口② |--①-|
口④④口 |--②-|
口口口口 |--③-|
口口口③ |--④-|
59
口口口口 |----|
口口口口 |----|
口口口口 |----|
口口口口 |----|
60
①口口口 |----|
口口口② |----|
③口口口 |--①-|
口口口口 |②-③-|
61
口口口口 |①---|
口②口口 |②-③-|
口④③口 |--④-|
口口⑤① |⑤---|
62
口③口口 |----|
口口②口 |--①-|
口口④口 |②---|
口①口口 |③-④-|
63
①口口口 |--①-|
③口口② |②-③-|
⑤口口④ |④-⑤-|
⑦口口⑥ |⑥-⑦-|
64
口口①口 |--①-|
口②③口 |②-③-|
口④⑤口 |④-⑤-|
口⑥⑦口 |⑥-⑦-|
65
⑦口口⑥ |--①-|
⑤口口④ |②-③-|
③口口② |④-⑤-|
①口口口 |⑥-⑦-|
66
⑥④口口 |--①-|
口口③口 |②-③-|
口②⑤口 |④-⑤-|
口口①口 |--⑥-|
67
口口口③ |--①-|
口②口口 |②-③-|
口④④口 |--④-|
口⑤⑤① |--⑤-|
68
④③③④ |--①-|
②口口② |--②-|
①口口① |--③-|
口口口口 |--④-|
69
口口口口 |--①-|
口⑤⑥口 |②-③-|
口③④口 |④-⑤-|
①⑦口② |⑥-⑦-|
70
③③④④ |----|
口口口口 |①---|
②口口② |②---|
①口口① |③-④-|
71
口口口口 |----|
口口口口 |----|
口口口口 |----|
口口口口 |----|
72
口①口口 |----|
口②④口 |①---|
口③口口 |②---|
口口口口 |③-④-|
73
①①口口 |----|
口口口口 |----|
口口口口 |----|
口口口口 |--①-|
74
口口①① |--①-|
口④④口 |--②-|
口④④口 |--③-|
③③②② |--④-|
75
③③口口 |----|
口口口口 |----|
口口②口 |--①-|
口①口口 |②-③-|
76
口口口口 |----|
口口口口 |----|
口口口口 |----|
口口口口 |----|
77
①①①① |①---|
②②②② |--②-|
③③③③ |----|
口口口口 |③---|
78
④口口口 |①---|
口口③口 |----|
口②口口 |--②-|
①①①① |③-④-|
79
口⑦口口 |--①-|
口①⑥口 |②-③-|
口⑤②口 |④-⑤-|
口③④口 |⑥-⑦-|
80
口口⑦口 |--①-|
口⑥口① |②-③-|
②口⑤口 |④-⑤-|
口④口③ |⑥-⑦-|
81
①口口② |--①-|
③口口④ |②-③-|
⑤口口⑥ |④-⑤-|
⑦口口口 |⑥-⑦-|
82
①口口② |--①-|
口④④口 |--②-|
口口口口 |--③-|
口口口③ |--④-|
83
口口口口 |----|
口口口口 |----|
口口口口 |----|
口口口口 |----|
84
①口口口 |----|
口口口② |----|
③口口口 |--①-|
口口口口 |②-③-|
85
口口口口 |①---|
口②口口 |②-③-|
口④③口 |--④-|
口口⑤① |⑤---|
86
口③口口 |----|
口口②口 |--①-|
口口④口 |②---|
口①口口 |③-④-|
87
口口口口 |----|
口口口口 |----|
口口口口 |----|
口口口口 |----|
88
口口口口 |----|
口口口口 |----|
口口口口 |----|
口口口口 |----|
89
①口口⑧ |①-②-|
⑦口口② |③-④-|
③口口⑥ |⑤-⑥-|
⑤口口④ |⑦-⑧-|
90
口①⑧口 |①-②-|
口⑦②口 |③-④-|
口③⑥口 |⑤-⑥-|
口⑤④口 |⑦-⑧-|
91
①口口⑧ |①-②-|
⑦口口② |③-④-|
③口口⑥ |⑤-⑥-|
⑤口口④ |⑦-⑧-|
92
口①⑧口 |①-②-|
口⑦②口 |③-④-|
口③⑥口 |⑤-⑥-|
口⑤④口 |⑦-⑧-|
93
①口口⑧ |①-②-|
⑦口口② |③-④-|
③口口⑥ |⑤-⑥-|
⑤口口④ |⑦-⑧-|
94
口①⑧口 |①-②-|
口⑦②口 |③-④-|
口③⑥口 |⑤-⑥-|
口⑤④口 |⑦-⑧-|
95
①口口⑧ |①-②-|
⑦口口② |③-④-|
③口口⑥ |⑤-⑥-|
⑤口口④ |⑦-⑧-|
96
口①⑧口 |①-②-|
口⑦②口 |③-④-|
口③⑥口 |⑤-⑥-|
口⑤④口 |⑦-⑧-|

不確定度: 0

最終更新:2015年05月24日 19:11