キルト
Des-Sana+wpt9

BASIC

Level: 5
BPM: 178
Notes: 310

1
口口口口 |----|
口口口口 |----|
口口口口 |----|
口口口口 |----|
2
口口口口 |----|
口口口口 |----|
口口口口 |----|
口口口口 |----|
3
口③口口 |①---|
①②④口 |②---|
口⑤口口 |③---|
口口口口 |④-⑤-|
4
口口口口 |①---|
口口口口 |②---|
口口②③ |③---|
口口①口 |----|
5
口口口口 |①---|
口④口口 |②---|
③②⑤口 |③---|
口①口口 |④-⑤-|
6
口口③口 |①---|
口口②① |②---|
口口口口 |③---|
口口口口 |----|
7
口③口口 |①---|
①②④口 |②---|
口⑤口口 |③---|
口口口口 |④-⑤-|
8
口口口口 |①---|
口口口口 |②---|
口口②③ |③---|
口口①口 |----|
9
①①口口 |①---|
口口口口 |----|
口口口口 |②---|
口口②② |----|
10
口口口口 |①---|
①①口口 |②---|
口④③② |③---|
口口口口 |④---|
11
①①口口 |①---|
①①口口 |----|
口口口② |----|
口口口口 |②---|
12
口口口口 |①---|
③口口口 |②---|
口②④④ |③---|
口口①口 |④---|
13
口口口口 |①---|
口口口口 |----|
②口口口 |----|
口口①① |②---|
14
口口口口 |①---|
④④口③ |②---|
口口②口 |③---|
口①口口 |④---|
15
①①口口 |①---|
口口口口 |----|
口口口② |----|
口口口口 |②---|
16
口口⑤⑤ |①---|
③口④④ |②---|
口②口口 |③---|
口口①口 |④-⑤-|
17
口口口口 |①---|
口口口口 |----|
②②口口 |②---|
①①口口 |----|
18
②③口口 |①---|
①①口口 |----|
口口口口 |②---|
口口口口 |③---|
19
口口口口 |----|
口口口口 |①---|
口口口① |----|
口口①② |②---|
20
口口口② |①---|
口口②口 |②---|
口口①口 |----|
口口口口 |----|
21
口口口口 |----|
口口口口 |①---|
②③口口 |②---|
①②口口 |③---|
22
①口口② |①---|
口①②口 |----|
口口口口 |②---|
口口口口 |----|
23
口口口口 |----|
口口口口 |①---|
口口口① |----|
口口①口 |----|
24
口口④口 |①---|
口口口③ |②---|
口口②口 |③---|
口口口① |④---|
25
口口口口 |①---|
口口②口 |----|
①口口口 |②---|
③①口口 |③---|
26
②口口口 |①---|
口②口口 |----|
口①口口 |②---|
口口口口 |----|
27
口口口口 |----|
口口口口 |①---|
口口口① |----|
口口①② |②---|
28
口口口② |①---|
口口②口 |②---|
口口①口 |----|
口口口口 |----|
29
口口口口 |----|
口口口口 |①---|
②③口口 |②---|
①②口口 |③---|
30
①口口② |①---|
口①②口 |----|
口口口口 |②---|
口口口口 |----|
31
口口口口 |----|
口口口口 |①---|
口口口① |----|
口口①口 |----|
32
口口④口 |①---|
口口口③ |②---|
口口②口 |③---|
口口口① |④---|
33
②口口口 |①---|
口②口口 |----|
①口口口 |②---|
口①口口 |----|
34
③口口④ |①---|
口③④口 |②---|
口②口口 |③---|
①口口口 |④---|
35
口口口口 |----|
口口口口 |----|
口口口口
口口口口
36
口口口口 |----|
口口口口 |①---|
口口①口 |②---|
口口③② |③---|
37
口口口口 |①---|
②②口口 |----|
口口口① |----|
口口口口 |②---|
38
①①②口 |①---|
口口口口 |----|
口口口口 |----|
口口口口 |②---|
39
口口口③ |①---|
口口②① |②---|
口口口口 |③---|
口口口口 |----|
40
口口口口 |----|
口口口口 |①---|
口口①口 |②---|
口口③② |③---|
41
②口口口 |①---|
口口口口 |----|
口口口① |----|
口口口口 |②---|
42
口③口口 |①---|
②①口口 |②---|
口口口口 |③---|
口口口口 |----|
43
口口口口 |①---|
口口口口 |②---|
口口①④ |③---|
口口③② |④---|
44
口口口口 |①---|
口①①口 |----|
口②②口 |----|
口口口口 |②---|
45
口口口口 |----|
口口口口 |----|
口口口口 |----|
口口口口 |----|
46
①口口② |①---|
口口口口 |----|
口口口口 |②---|
口口口口 |----|
47
口口口口 |①---|
口口口口 |----|
③口口口 |②---|
②③口① |③---|
48
口口口口 |①---|
口口口口 |----|
口①口口 |----|
口口口② |②---|
49
口口口口 |①---|
口口口口 |②---|
口口①② |③---|
④口③口 |④---|
50
口口口口 |①---|
口口口口 |----|
①口口口 |----|
口①口口 |----|
51
口口①④ |①---|
口口③② |②---|
口口口口 |③---|
口口口口 |④---|
52
①口口口 |①---|
口①口口 |----|
口口口口 |----|
口口口口 |----|
53
口口口口 |①---|
口口口口 |----|
②口口① |②---|
口②①口 |----|
54
口口口口 |①---|
口口口口 |----|
口②口口 |②---|
①口口口 |----|
55
口口口口 |①---|
口口口口 |----|
口口②口 |②---|
口口口① |----|
56
口①①口 |①---|
口口口口 |----|
口口口口 |----|
口口口口 |----|
57
口口口口 |----|
口口口口 |----|
①口口① |①---|
口口口口 |----|
58
口口口口 |①---|
口口口口 |----|
②①①② |②---|
口口口口 |----|
59
②③③① |①---|
④②①④ |②---|
口口口口 |③---|
口口口口 |④---|
60
口口口口 |①---|
口口口口 |②---|
口④①口 |③---|
口②③口 |④---|
61
口口口口 |①---|
②①①② |----|
口口口口 |②---|
口口口口 |----|
62
口口口口 |①---|
口①④口 |②---|
口③②口 |③---|
口口口口 |④---|
63
②①①② |①---|
口口口口 |----|
口口口口 |②---|
口口口口 |----|
64
口口口口 |①---|
口口口口 |----|
①口口② |②---|
口①②口 |----|
65
口口口口 |①---|
口口口口 |②---|
口②④口 |③---|
①口口③ |④---|
66
口②③口 |①---|
口口口口 |----|
①口口① |②---|
口口口口 |③---|
67
①口口① |①---|
②口口② |----|
口口口口 |②---|
口口口口 |----|
68
口口口口 |①---|
口口口口 |----|
②②口口 |②---|
①①口口 |----|
69
①④口口 |①---|
③②口口 |②---|
口口口口 |③---|
口口口口 |④---|
70
口口①① |①---|
口口②② |----|
口口口口 |②---|
口口口口 |----|
71
口口口口 |①---|
口口口口 |②---|
口口①④ |③---|
口口③② |④---|
72
口口口口 |①---|
口口口口 |----|
口①①口 |②---|
③②②③ |③---|
73
口口口口 |①---|
口①①口 |----|
③②②③ |②---|
口口口口 |③---|
74
口①①口 |①---|
口②②口 |----|
口口口口 |②---|
口口③口 |③---|
75
口口口口 |①---|
④口口④ |②---|
口①③口 |③---|
口②口口 |④---|
76
①口口① |①---|
口口口口 |----|
口口口口 |----|
口口口口 |----|
77
口口口口 |----|
口口口口 |----|
口口口口 |----|
口口口口 |----|
78
①④口口 |①---|
③②口口 |②---|
口口口口 |③---|
口口口口 |④---|
79
口口②② |①---|
口口①① |----|
口口口口 |②---|
③③口口 |③---|
80
口口口口 |①---|
口口口口 |----|
①①口口 |----|
口口口口 |----|
81
口口④④ |①---|
口③口口 |②---|
口口②口 |③---|
口①口口 |④---|
82
口口口口 |①---|
口口①① |----|
口口口口 |----|
口口口口 |----|
83
⑤⑤口口 |①---|
④④③口 |②---|
口②口口 |③---|
口口①口 |④-⑤-|
84
口口口口 |----|
口口口口 |----|
口口口口 |----|
口口口口 |----|
85
口①①口 |①---|
口②②口 |②---|
口③③口 |③---|
口④④口 |④---|
86
口口口① |①---|
口口口口 |----|
口口口口 |②---|
口口口② |----|
87
②口口口 |①---|
口③③口 |----|
口口口口 |②---|
①口口口 |③---|


不確定度: 0

タグ:

+ タグ編集
  • タグ:

このサイトはreCAPTCHAによって保護されており、Googleの プライバシーポリシー利用規約 が適用されます。

最終更新:2013年03月29日 20:32