我が麗しのバレンシア
劇団レコード feat. Mille Face

EXTREME

Level: 8
BPM: 130-150
Notes: 565

BPM: 130
1
口口口口 |----|
口口口口 |----|
口口口口 |----|
口口口口 |----|
2
口口口口 |----|
口口口口 |①---|
口口口口
口①口口

口口口口
口③②口
口口口口 |②-③-|
口④④口 |--④-|
3
口口口口 |----|
②口④① |①-②-|
口④口口 |--③-|
口③③口 |--④-|
4
口②①口 |----|
④口口④ |①-②-|
③口口③ |--③-|
口口口口 |--④-|
5
口口口口 |----|
口①③口 |----|
口口②口 |--①-|
口口口口 |②-③-|
6
口口口口 |①---|
②口口③ |②-③-|
口口口口
口①①口

口口口口
口口⑤口
口④口口 |--④-|
口⑤④口 |--⑤-|
7
口口口口 |----|
口③口口 |----|
口口②口 |--①-|
口①口口 |②-③-|
8
①口口① |①---|
⑤口②⑤ |②-③-|
口③口口 |--④-|
④口口④ |--⑤-|
9
口口口口 |----|
口口口口 |----|
口口口口 |----|
口口口口 |----|
10
口口口口 |①---|
口口口口 |----|
口①①口 |----|
口口口口

BPM: 150
口口口口
口口口口
口口③口
口②口口 |②-③-|
11
①口口口 |①---|
口④③① |----|
口②⑤口 |②-③-|
口口口口 |④-⑤-|
12
口②口① |①---|
口口②口 |----|
①④口口 |②---|
口口③口 |③-④-|
13
口口口① |①---|
①③④口 |----|
口⑤②口 |②-③-|
口口口口 |④-⑤-|
14
①口口口 |①---|
口口口② |----|
②口④① |②---|
口③口口 |③-④-|
15
①④③口 |①---|
口口口口 |----|
口②⑤口 |②-③-|
口口口① |④-⑤-|
16
口②口① |①---|
口口②口 |----|
①④口口 |②---|
口口③口 |③-④-|
17
口口口① |①---|
①③④口 |----|
口⑤②口 |②-③-|
口口口口 |④-⑤-|
18
①口口口 |①---|
②③③② |----|
口口⑤① |②-③-|
口口④口 |④-⑤-|
19
②②①口 |①---|
⑤⑤⑤④ |②---|
③口口③ |③-④-|
①口⑥口 |⑤-⑥-|
20
②②①① |①---|
④④③③ |②---|
③口口⑤ |③---|
①口口④ |④-⑤-|
21
②②口① |①---|
⑤⑤④⑤ |②---|
③口③口 |③-④-|
①口口⑥ |⑤-⑥-|
22
②②①① |①---|
④④口口 |②---|
③口⑤③ |③---|
①口④口 |④-⑤-|
23
②②口① |①---|
⑤⑤④口 |②---|
③口⑤③ |③-④-|
①口⑥口 |⑤-⑥-|
24
②②①① |①---|
④④口③ |②---|
③口⑤口 |③---|
①口④③ |④-⑤-|
25
②②①口 |①---|
⑤⑤③④ |②---|
③口⑤口 |③-④-|
①口⑥口 |⑤-⑥-|
26
②②口口 |①---|
④③③口 |②---|
⑤③③口 |③---|
①口口① |--④⑤|
27
口口口口 |①---|
口口口口 |--②-|
口口②口
①口①口

口口③口
口口口口
口口口口 |③---|
口口④④ |④---|
28
口②口口 |①-②-|
①口口① |----|
口②口口
①口口口

口口口口
口口口③
口口口④ |----|
口口口口 |--③④|
29
口口③口 |①---|
口口⑤口 |--②-|
口②口口 |③--④|
口①④① |--⑤-|
30
口②口口 |①-②-|
①口口① |----|
口②口口
①口口口

口口口口
③口口口
④口口口 |----|
口口口口 |--③④|
31
口口③口 |①---|
口口口⑤ |--②-|
口口②口 |③--④|
①口①④ |--⑤-|
32
口②口① |①-②-|
①口口口 |----|
口②口口
①口口口

口⑤口口
口③④口
口口口⑤ |--③-|
口④③口 |④-⑤-|
33
口②①口 |①---|
③④口口 |----|
①口④③ |--②-|
口口口② |--③④|
34
口口口口 |①---|
口口①口 |----|
口①口口
口口口口

口口口口
口口②口
口口③口 |----|
口口口口 |--②③|
35
②②④口 |①---|
⑤⑤口口 |②-③-|
④口⑤口 |④---|
①口①③ |⑤---|
36
口口口口 |①---|
③口⑤① |②---|
口②⑥① |③---|
①④口口 |④-⑤⑥|
37
②②口④ |①---|
⑥⑥口口 |②-③-|
④口⑦③ |④--⑤|
①口①⑤ |⑥-⑦-|
38
口口口口 |①---|
③口①⑤ |②---|
口②口⑥ |③---|
①④口口 |④-⑤⑥|
39
②②④口 |①---|
⑤⑤⑤口 |②-③-|
④口口⑤ |④---|
①口③① |⑤---|
40
口口⑥口 |①---|
③口④① |②---|
⑤②①口 |③-④-|
①口口口 |⑤-⑥-|
41
口口口口 |①---|
口口口口 |②---|
口①①口
②口口口

口口口口
④口口④
③④④③ |③---|
口口口口 |④---|
42
口③口③ |①-②-|
口口①口 |③-④-|
口口口口
②④②④

⑤口⑤口
⑧口⑧口
⑦⑥⑦⑥ |⑤-⑥-|
口口口口 |--⑦⑧|
43
④口④口 |①---|
口③口③ |②---|
④③④③ |③---|
①②①② |④---|
44
口②⑫⑦ |①-②③|
⑧③①口 |④-⑤⑥|
⑨④⑫⑥ |⑦-⑧⑨|
⑩口⑪⑤ |⑩-⑪⑫|
45
⑦口⑦⑧ |--①②|
⑥①⑥⑨ |③-④⑤|
⑧②口⑤ |⑥-⑦-|
⑨③口④ |⑧-⑨-|
46
口②口口 |①-②③|
口③口口 |④-⑤⑥|
口④①⑥
口口口⑤

口口⑦口
⑧口口口
⑨口⑫口 |⑦-⑧⑨|
⑩口⑪口 |⑩-⑪⑫|
47
口口口① |①-②③|
口②口口 |④-⑤⑥|
口③口⑥
口④口⑤

⑦口⑧⑨
⑧⑩⑦口
⑨口⑩口 |⑦-⑧-|
口口口口 |⑨-⑩-|
48
口口口③ |①---|
②口③口 |--②-|
口②口口 |③---|
口①①口 |----|
49
②④口④ |----|
口口口② |①---|
口③口③ |②--③|
①口口① |--④-|
50
口口口口 |①②③-|
①④①④ |--④⑤|
②⑤②⑤
③口③口

口⑨口⑨
⑧口⑧口
⑦口⑦口 |⑥---|
口⑥口⑥ |⑦⑧⑨-|
51
口口口口 |----|
口口口口 |----|
口口口口 |----|
口口口口 |----|
52
①①口③ |----|
④④①口 |①---|
②口②⑤ |②-③-|
口口①⑤ |④-⑤-|
53
②②③⑦ |①---|
⑥⑥口口 |②-③-|
④⑦②⑦ |④-⑤-|
①口⑤口 |⑥-⑦-|
54
④①①④ |----|
口口②口 |①-②-|
④口口④ |--③-|
③②口③ |--④-|
55
口口③口 |--①-|
②②⑦口 |②-③-|
口④⑥⑤ |④-⑤-|
⑤①口口 |⑥-⑦-|
56
①①②口 |①---|
③③⑤⑤ |②-③-|
⑤⑤口口 |--④-|
口口④① |--⑤-|
57
口口口口 |----|
③口⑤口 |①---|
口④口口 |②-③-|
①③②口 |④-⑤-|
58
口口⑤③ |①---|
口①口口 |②-③-|
口口口③ |--④-|
②④口① |--⑤-|
59
口③口③ |①--②|
④口④口 |--③-|
②①②口 |④---|
①⑤①⑤ |⑤---|
60
②②口口 |①---|
口口②① |②---|
口口口①
口口②口

口口口④
⑤⑤口口
③口③⑥ |③-④-|
口口口⑥ |⑤-⑥-|
61
②②③⑦ |①---|
⑥⑥口口 |②-③-|
④⑦②⑦ |④-⑤-|
①口⑤口 |⑥-⑦-|
62
④①①④ |----|
口口②口 |①-②-|
口④④口 |--③-|
③②口③ |--④-|
63
口口③口 |--①-|
④②⑦口 |②-③-|
口口⑥⑤ |④-⑤-|
口①口口 |⑥-⑦-|
64
①①②口 |①---|
口③口① |②-③-|
口口口口
口口口①

口口口口
⑤口口⑤
口⑤⑤口 |--④-|
口④④口 |--⑤-|
65
口口口口 |----|
③口⑤口 |①---|
口④口口 |②-③-|
①③②口 |④-⑤-|
66
②口口③ |①---|
③①口② |②-③-|
口口口口
口口口①

口口口口
口⑤⑤口
④⑤⑤④ |--④-|
口④④口 |--⑤-|
67
口口口口 |----|
口口口口 |----|
口口口口 |----|
口①①口 |--①-|


不确定度: 0

最終更新:2015年02月06日 16:49