きらきらタイム☆
さわわ

EXTREME

Level: 10
BPM: 202
Notes: 958

1
口口口口 |----|
口口口口 |----|
口口口口 |----|
口口口口 |----|
2
口口口口 |----|
口口口口 |----|
口④③口 |----|
口②①口 |①②③④|
3
⑥口①⑤ |①-②-|
④口口① |③-④-|
③口口口 |--⑤-|
②口口口 |⑥---|
4
口口⑥⑤ |①-②-|
口口口口 |③-④-|
②③④口 |⑤---|
⑤⑥①① |⑥---|
5
②①口口 |①-②-|
③口口口 |③-④-|
④⑥⑤口 |--⑤-|
口口①口 |⑥---|
6
①③口② |①-②-|
③①口④ |③-④-|
⑤⑦口⑥ |⑤-⑥-|
⑦⑤口⑧ |⑦-⑧-|
7
⑥⑥②① |①-②-|
口口④③ |③-④-|
口口口⑤ |⑤-⑥-|
口口⑦⑦ |⑦---|
8
⑦⑦口口 |①-②-|
⑤口口口 |③-④-|
③④口口 |⑤-⑥-|
①②⑥⑥ |⑦---|
9
⑫口口⑪ |①-②-|
⑩②①⑨ |③-④-|
⑧④③⑦ |⑤⑥⑦⑧|
⑥口口⑤ |⑨⑩⑪⑫|
10
口③③口 |①---|
口②②口 |----|
口③③口 |②---|
口①①口 |③---|
11
口口口口 |①---|
口口口口 |②---|
口口口口 |③---|
④③②① |④---|
12
口口口口 |①---|
口口口口 |②---|
口口口口 |③---|
④③②① |④---|
13
口口口口 |①---|
口口④⑥ |②---|
口口口口 |③-④-|
⑤③②① |⑤-⑥-|
14
①⑤⑦③ |①-②-|
口口口口 |③-④-|
⑥②④口 |⑤-⑥-|
口口口口 |⑦---|
15
⑦口口口 |①---|
①①①① |②-③-|
口⑤③口 |④-⑤-|
⑥④②口 |⑥-⑦-|
16
口②④口 |①-②-|
口口⑧⑥ |③-④-|
口口口口 |⑤-⑥-|
⑦⑤③① |⑦-⑧-|
17
口口口口 |①---|
口口口口 |②-③-|
口口③口
口口②①

⑥口口口
④④口口
⑤⑤口口 |④-⑤-|
口口口⑥ |--⑥-|
18
口①口① |--①-|
口③口③ |②-③-|
④口④口 |④---|
②口②口 |----|
19
①口口① |①---|
口口③口 |②-③-|
口②口口
口口口口

⑥口口口
⑤⑤口口
⑥口口口 |④-⑤-|
口口④④ |--⑥-|
20
⑥①口口 |--①-|
⑤⑤②口 |②-③-|
⑥③口口 |④-⑤-|
口口④④ |--⑥-|
21
⑥②①⑤ |--①-|
口口口口 |②-③-|
⑥口③⑤ |④-⑤-|
④④口口 |--⑥-|
22
口口⑧⑧ |--①-|
①⑤③口 |②-③-|
口②⑥口 |④-⑤⑥|
口⑦④④ |⑦-⑧-|
23
①①口口 |①---|
口口③口 |②-③-|
口②口口
口口口口

⑥口口⑥
⑤⑤口口
⑥口口⑥ |④-⑤-|
口口④④ |--⑥-|
24
口⑤①口 |--①-|
口口⑥② |②-③-|
口⑦③口 |④---|
口口⑧④ |⑤⑥⑦⑧|
25
②口口⑤ |①-②③|
⑥③口⑦ |④-⑤-|
口口④① |⑥-⑦-|
⑧⑨⑩⑪ |⑧⑨⑩⑪|
26
①①口口 |①--②|
口口③口 |--③-|
口②③口
口口口口

口⑥⑤口
口④口口
⑥口口⑤ |-④--|
口口口口 |⑤-⑥-|
27
①口口① |①---|
口口③口 |②-③-|
口②口口
口口口口

⑥口口口
⑤⑤口口
⑥口口口 |④-⑤-|
口口④④ |--⑥-|
28
⑥①口口 |--①-|
⑤⑤②口 |②-③-|
⑥③口口 |④-⑤-|
口口④④ |--⑥-|
29
口②①⑤ |--①-|
⑥⑦⑧口 |②-③-|
口口③⑤ |④-⑤-|
④④口口 |⑥⑦⑧-|
30
口③②⑧ |①-②③|
⑨口⑪⑥ |④⑤⑥-|
⑦⑤④⑩ |⑦-⑧⑨|
⑦口①① |⑩-⑪-|
31
①⑥①口 |①-②-|
⑦③⑦③ |③-④-|
④⑦④⑦ |⑤-⑥-|
口②⑤② |--⑦-|
32
④口口口 |--①-|
口⑩⑨② |②-③-|
③⑧⑦口 |④-⑤⑥|
口⑥⑤① |⑦⑧⑨⑩|
33
⑥口①① |①-②③|
口⑩口② |④-⑤-|
口口⑦③ |⑥-⑦⑧|
⑤⑧⑨④ |⑨-⑩-|
34
口①口① |①---|
①口①口 |----|
口口口口 |----|
口口口口 |----|
35
⑥⑦①① |①-②-|
⑥⑦口④ |③-④-|
口②⑤口 |⑤-⑥-|
口口⑧③ |⑦-⑧-|
36
口⑧④口 |①-②-|
口口③口 |③-④-|
⑤②⑦⑥ |⑤-⑥-|
①①⑦⑥ |⑦-⑧-|
37
④口口① |①-②-|
口②③① |③-④-|
口口⑥⑥ |⑤-⑥-|
⑤⑧⑦⑦ |⑦-⑧-|
38
口⑤①① |①-②-|
④口⑨③ |③-④-|
②口口口 |⑤-⑥⑦|
口⑧⑦⑥ |⑧-⑨-|
39
⑥口口⑥ |①-②-|
⑤口口⑧ |③-④-|
①②④③ |⑤-⑥-|
⑦口口⑦ |⑦-⑧-|
40
⑥口口⑥ |①-②-|
⑤口口⑧ |③-④-|
①②④③ |⑤-⑥-|
⑦口口⑦ |⑦-⑧-|
41
口④⑧口 |①-②-|
口③⑦口 |③-④-|
口②⑥口 |⑤-⑥-|
口①⑤口 |⑦-⑧-|
42
口⑩⑩⑤ |①②③④|
⑥⑩⑩① |⑤⑥⑦⑧|
⑧④口⑨ |⑨---|
②口⑦③ |⑩---|
43
口口口② |①---|
口口⑥③ |②-③-|
口口口⑤ |④-⑤-|
①口④① |⑥---|
44
口口口② |①---|
⑦口⑥③ |②-③-|
⑥⑦口⑤ |④-⑤-|
①⑥④① |⑥-⑦-|
45
①口口② |①---|
口①⑥③ |②-③-|
口口口⑤ |④-⑤-|
口口④口 |⑥---|
46
②④④② |①---|
口口口口 |②---|
口口口口 |③---|
①③③① |④---|
47
口口⑤口 |①---|
口③②④ |②-③-|
口①①口 |④-⑤-|
⑥⑥口口 |--⑥-|
48
口口口③ |--①-|
②②口口 |--②-|
①①口口 |--③-|
④口口⑤ |④-⑤-|
49
口口⑤口 |①---|
口③②④ |②-③-|
口①①口 |④-⑤-|
⑥⑥口口 |--⑥-|
50
①⑤⑤口 |--①-|
③口口口 |②-③-|
口口口② |④---|
口⑤⑤④ |⑤---|
51
口口口① |①---|
口口①口 |②-③-|
②①口口
①口口③

⑥口口⑦
④口⑦⑤
口口口口 |④-⑤-|
口口口口 |⑥-⑦-|
52
口⑦④口 |①-②-|
口⑤⑧⑥ |③-④-|
口③④② |⑤-⑥-|
口①②口 |⑦-⑧-|
53
⑥口③① |①---|
④口⑦口 |②-③-|
②口⑤口 |④-⑤-|
①口口口 |⑥-⑦-|
54
口①④① |①-②-|
口口口口 |③-④-|
口③口③
口口②口

口口口⑧
口⑤口⑤
口口⑥口 |⑤-⑥-|
口⑦口⑦ |⑦-⑧-|
55
①②③口 |①-②-|
①口③④ |③-④-|
⑤口⑦⑧ |⑤-⑥-|
⑤⑥⑦口 |⑦-⑧-|
56
①①口④ |①-②-|
②口③③ |③-④-|
口⑥⑦⑦ |⑤-⑥-|
⑤⑤⑧口 |⑦-⑧-|
57
⑤⑥⑦⑧ |①②③④|
①②③④ |⑤⑥⑦⑧|
⑨⑩⑪⑫ |⑨⑩⑪⑫|
⑬⑭⑮口 |⑬⑭⑮-|
58
①②④③ |--①-|
②①③④ |②-③-|
口口口口 |④---|
口口口口 |----|
59
⑤口口口 |①---|
口③④口 |②-③-|
①口②口 |④-⑤-|
⑥口口口 |--⑥-|
60
⑤口口口 |--①-|
①②口口 |②-③-|
口口③④ |④-⑤-|
⑥口口口 |--⑥-|
61
口口⑥⑤ |--①-|
②口口① |②-③-|
④口口③ |④-⑤-|
口口口口 |--⑥-|
62
口①口口 |--①-|
⑧③④口 |②-③-|
口口②口 |④-⑤⑥|
⑤⑥⑦口 |⑦-⑧-|
63
⑦②①⑦ |①-②-|
口④口口 |③-④-|
口口③口 |⑤-⑥-|
⑥口口⑤ |--⑦-|
64
口⑥口口 |--①-|
⑤口⑦④ |②-③-|
②⑧③口 |④-⑤-|
口①⑨口 |⑥⑦⑧⑨|
65
②口口⑤ |①-②③|
⑥③口⑦ |④-⑤-|
口口④① |⑥-⑦-|
⑧⑨⑩⑪ |⑧⑨⑩⑪|
66
①①口口 |①--②|
口口③口 |--③-|
口②③口
口口口口

口⑥⑤口
口④口口
⑥口口⑤ |-④--|
口口口口 |⑤-⑥-|
67
④口口① |①-②-|
⑥口口⑤ |③-④-|
口⑧⑦口 |⑤-⑥-|
③⑩⑨② |⑦⑧⑨⑩|
68
④口口① |①-②-|
⑥口口口 |③-④-|
口⑧⑦⑤ |⑤-⑥-|
③⑩⑨② |⑦⑧⑨⑩|
69
④口口① |①-②-|
口口口⑤ |③-④-|
⑥⑧⑦口 |⑤-⑥-|
③⑩⑨② |⑦⑧⑨⑩|
70
④口口① |①-②-|
口口口口 |③-④-|
⑥⑧⑦⑤ |⑤-⑥-|
③⑩⑨② |⑦⑧⑨⑩|
71
⑩⑨④⑤ |①-②-|
⑥⑧③⑦ |③④⑤-|
口口口口 |⑥-⑦-|
②口口① |⑧⑨⑩-|
72
口口口口 |①-②-|
⑥口口⑦ |③④⑤-|
⑩⑨④⑤ |⑥-⑦-|
②⑧③① |⑧⑨⑩-|
73
④③⑥⑦ |①-②③|
口②⑤口 |④-⑤⑥|
⑩⑨⑫口 |⑦-⑧⑨|
口⑧⑪① |⑩-⑪⑫|
74
⑥②⑨口 |①②③④|
口⑧⑤③ |⑤⑥⑦⑧|
口口口① |⑨---|
④口口⑦ |----|
75
⑧口口① |①-②-|
②口口⑦ |③-④-|
⑥口口③ |⑤-⑥-|
④口口⑤ |⑦-⑧-|
76
口④④口 |--①-|
口①②口 |②-③-|
口④④口 |----|
口③口口 |④---|
77
①⑦⑦⑧ |①-②③|
⑥①⑨口 |④-⑤-|
口⑩口⑤ |⑥-⑦-|
口④③② |⑧⑨⑩-|
78
口口⑦⑦ |①②③-|
⑧⑨⑩④ |④-⑤-|
口口⑤口 |⑥-⑦-|
⑥③②① |⑧⑨⑩-|
79
⑦⑧口口 |①②③-|
⑨口口④ |④-⑤-|
⑦⑩口⑥ |⑥-⑦-|
⑤③②① |⑧⑨⑩-|
80
口⑩①口 |①②③-|
⑩②口⑥ |④-⑤-|
口口③⑤ |⑥-⑦⑧|
⑦⑧⑨④ |⑨-⑩-|
81
②口口① |①-②③|
口③①⑦ |④-⑤-|
口⑤④⑥ |⑥-⑦-|
⑧⑨⑩⑦ |⑧⑨⑩-|
82
③⑦⑥② |①-②-|
④口⑧⑤ |③-④-|
①⑨口口 |⑤-⑥-|
口口⑩口 |⑦⑧⑨⑩|
83
②口口⑤ |①-②③|
⑥③口⑦ |④-⑤-|
口口④① |⑥-⑦-|
⑧⑨⑩⑪ |⑧⑨⑩⑪|
84
①①口口 |①--②|
口口③口 |--③-|
口②③口
口口口口

口⑥⑤口
口④口口
⑥口口⑤ |-④--|
口口口口 |⑤-⑥-|
85
①口⑧① |①-②③|
⑤⑨⑦⑦ |④-⑤-|
口⑤⑩口 |⑥-⑦-|
②③④⑥ |⑧⑨⑩-|
86
⑧⑦⑦④ |①②③-|
⑨口口口 |④-⑤-|
⑩⑥口⑤ |⑥-⑦-|
①②③口 |⑧⑨⑩-|
87
口⑩⑦⑦ |①②③-|
口口⑨① |④-⑤-|
口⑧②口 |⑥-⑦-|
⑥③⑤④ |⑧⑨⑩-|
88
①口口口 |①-②③|
⑤①口⑥ |④⑤⑥-|
③口口④
口口口②

⑪口⑧⑪
口口⑨口
口口⑩口 |⑦-⑧⑨|
⑦⑦口口 |⑩-⑪-|
89
口⑥⑥⑦ |①-②-|
口④⑦③ |③-④-|
②⑦口口 |⑤-⑥-|
⑦⑤⑤① |--⑦-|
90
⑧④④⑦ |--①-|
⑥②口⑤ |②-③-|
②口①⑨ |④-⑤⑥|
⑩③③① |⑦⑧⑨⑩|
91
口⑥⑥⑦ |①-②③|
⑧⑩⑩口 |④-⑤-|
②③④⑨ |⑥-⑦⑧|
口⑤⑤① |⑨-⑩-|
92
④口口口 |①---|
口口口② |②---|
③口口口 |③---|
①口口① |④---|
93
口①①⑧ |①-②③|
⑨⑤⑦② |④-⑤-|
⑤⑦③⑩ |⑥-⑦-|
口口⑥④ |⑧⑨⑩-|
94
①②③口 |①②③-|
口口口口 |④-⑤-|
口口口口
⑤口口④

⑩口口⑦
口口⑦⑨
⑧口口口 |⑥-⑦-|
口⑥口口 |⑧⑨⑩-|
95
口⑦④口 |①②③-|
③②⑦口 |④-⑤-|
⑪⑩⑨⑧ |⑥-⑦-|
⑥口①⑤ |⑧⑨⑩⑪|
96
④⑦⑦③ |①-②-|
⑧⑨⑩① |③④⑤⑥|
口口口口 |⑦-⑧⑨|
⑥②②⑤ |⑩---|
97
⑧④口口 |①-②-|
口⑧⑦③ |③-④-|
②⑥⑤⑦ |⑤-⑥-|
⑥①①⑤ |⑦-⑧-|
98
口③③口 |--①-|
①⑨⑧① |②-③-|
⑦⑤⑤⑥ |④-⑤-|
④②②④ |⑥⑦⑧⑨|
99
②口⑥① |①-②③|
③口口⑨ |-④⑤-|
口⑦⑩口 |⑥-⑦⑧|
⑧⑤④口 |-⑨⑩-|
100
①①口② |①---|
口口口口 |----|
口口口口 |----|
口口口口 |②---|

不確定度: 0

最終更新:2016年04月18日 01:20