朱と碧のランページ
NU-KO

ADVANCED

Level: 7
BPM: 178
Notes: 527

1
口口口口 |----|
口口口口 |----|
口口口口 |----|
口口口口 |----|
2
⑥口①⑥ |①-②-|
口②口口 |③-④-|
口口③口 |--⑤-|
⑤④口⑤ |--⑥-|
3
口口口口 |--①-|
①口口① |--②-|
②口口② |----|
口口口口 |----|
4
口口口口 |----|
口口口口 |----|
口口口口
口口口口
5
⑧②①⑦ |①-②-|
口口③口 |③-④-|
口⑥口口 |⑤-⑥-|
口④⑤口 |⑦-⑧-|
6
口口口口 |①-②-|
口⑤⑤① |③-④-|
④⑥⑥口 |⑤---|
②口口③ |⑥---|
7
①⑦⑧② |①-②-|
③口口口 |③-④-|
口口口⑥ |⑤-⑥-|
⑤口口④ |⑦-⑧-|
8
⑥口口⑤ |①-②-|
⑧①口⑦ |③-④-|
口口④口 |⑤-⑥-|
口③②口 |⑦-⑧-|
9
口口口口 |①---|
口口口口 |----|
口口口① |--②-|
口④③② |③-④-|
10
口口②口 |①---|
口口③口 |----|
口口口口 |②---|
①口口口 |③---|
11
口口口口 |①---|
口口口口 |②-③-|
口口①口 |----|
口②③口 |----|
12
口口口口 |----|
口口口口 |----|
口口口口 |--①-|
①②③口 |②-③-|
13
口口口口 |①---|
口口口口 |----|
口④③② |--②-|
口口口① |③-④-|
14
口口③口 |①---|
口口②口 |--②-|
①口口口 |----|
口口口口 |③---|
15
口口口口 |①---|
口①口④ |②-③-|
口③②口 |----|
口口口口 |④---|
16
口口口口 |①---|
口口口口 |----|
口口口① |--②-|
②③④口 |③-④-|
17
口口口口 |①---|
口口口口 |----|
口④③② |--②-|
口口口① |③-④-|
18
口口②口 |①---|
口口③口 |----|
①口口口 |②---|
口口口口 |③---|
19
口口口口 |①---|
口口口口 |②-③-|
口口①口 |----|
口②③口 |----|
20
口口口口 |----|
口口③口 |----|
口②①口 |--①-|
口口口口 |②-③-|
21
口口口口 |①---|
口①②口 |----|
口③口口 |----|
口口口口 |②-③-|
22
口口口口 |①---|
口口口口 |--②-|
③口①口 |----|
②口口口 |③---|
23
口③②口 |①---|
口①口口 |②-③-|
口口口口 |----|
口口口口 |----|
24
口口口① |----|
口口②口 |--①-|
口③口口 |②-③-|
④⑤口口 |④-⑤-|
25
口口口口 |①---|
口②③⑤ |②-③-|
④口①⑤ |--④-|
口口①口 |--⑤-|
26
口口口口 |----|
口口⑤口 |--①-|
口④②口 |②-③-|
口③①口 |④-⑤-|
27
口①①口 |①---|
③口口② |②-③-|
口⑤④口 |--④-|
口⑥⑥口 |⑤-⑥-|
28
口口口口 |----|
口③②口 |--①-|
④口⑤① |②-③-|
口口口口 |④-⑤-|
29
口④④③ |①---|
②⑤⑤③ |②-③-|
口①口口 |--④-|
口①口口 |--⑤-|
30
口口口口 |----|
口口口口 |--①-|
口②①口 |②---|
口口口口 |----|
31
④③③④ |①-②-|
①②②① |③-④-|
口⑥⑥口 |--⑤-|
⑤口口⑤ |--⑥-|
32
②口口① |----|
④口口③ |--①-|
口口口⑤ |②-③-|
口口口口 |④-⑤-|
33
口①①口 |①---|
口②③口 |②-③-|
口④④口 |--④-|
口⑤⑤口 |--⑤-|
34
④③②① |----|
口口口口 |--①-|
口口口口 |②-③-|
口口口口 |④---|
35
口口口口 |①---|
④②①⑤ |②-③-|
④①③⑤ |--④-|
口口口口 |--⑤-|
36
口口口口 |--①-|
口②①口 |②---|
口口口口 |----|
口口口口 |----|
37
口⑥⑥口 |①-②-|
口⑤⑤口 |③-④-|
②②③③ |--⑤-|
④④①① |--⑥-|
38
口口口口 |--①-|
②口口② |②---|
①④④① |③---|
口③③口 |④---|
39
①①①① |①---|
口口口口 |----|
口口口口 |----|
口口口口 |----|
40
口口口口 |----|
口①②口 |----|
①口口② |①---|
口口口口 |②---|
41
②口③② |①---|
口口④口 |②---|
口口⑤口 |③--④|
口①①口 |--⑤-|
42
④口口④ |①--②|
口③口口 |--③-|
口②口口 |④---|
口①⑤口 |--⑤-|
43
口口口口 |①---|
③口⑤② |②---|
③口④② |③--④|
口①口口 |--⑤-|
44
②①①② |①---|
口口口口 |----|
口口口口 |----|
口口口口 |②---|
45
口口①口 |①--②|
口④②口 |--③-|
口口③口 |④---|
口口口口 |----|
46
口口①口 |①--②|
口④②口 |--③-|
口口③口 |④---|
口口口口 |----|
47
口口⑤口 |①--②|
口④口口 |--③-|
①②③口 |④---|
口口口口 |⑤---|
48
口①口口 |①---|
口③②口 |----|
口②③口 |②---|
口口口口 |③---|
49
口②①口 |①---|
②⑤⑤① |②---|
口④④口 |③--④|
口③③口 |--⑤-|
50
①口口① |①--②|
②口口② |--③-|
③口⑤③ |④---|
口④④口 |--⑤-|
51
口②②口 |①---|
④口口③ |②---|
⑥①口⑤ |③-④-|
口口口口 |⑤-⑥-|
52
口口口口 |①--②|
口口口口 |--③-|
口口④口 |④---|
口③②① |----|
53
口①口口 |①--②|
⑥②口⑥ |--③-|
口③口口 |④-⑤-|
口⑤④口 |--⑥-|
54
口②①口 |--①-|
口④③口 |②-③-|
口口⑤口 |④-⑤-|
口口口口 |----|
55
口③②① |①--②|
口③②① |--③-|
口④④口 |④---|
口⑤⑤口 |⑤---|
56
口口口口 |①---|
①口口① |----|
口口口口 |----|
口口口口 |----|
57
⑤②①④ |①-②-|
②⑤④① |③-④-|
⑥③③⑥ |⑤-⑥-|
⑦口口⑦ |--⑦-|
58
口口口口 |--①-|
②④③② |--②-|
口①①口 |--③-|
口口口口 |④---|
59
⑥⑥⑥⑥ |①-②-|
⑤口口⑤ |③-④-|
口④②口 |--⑤-|
③口口① |--⑥-|
60
口口口口 |----|
口口口口 |----|
口口口口 |----|
口口口口 |----|
61
②口⑤口 |①-②-|
口⑥口③ |③-④-|
⑧口①口 |⑤-⑥-|
④口口⑦ |⑦-⑧-|
62
④口⑦口 |①-②-|
⑥口①⑤ |③-④-|
口②口口 |⑤-⑥-|
⑧口③口 |⑦-⑧-|
63
⑧④口口 |①-②-|
口口③⑦ |③-④-|
口②口⑤ |⑤-⑥-|
口⑥口① |⑦-⑧-|
64
口口口口 |①-②-|
②口⑤口 |③-④-|
口④①口 |⑤---|
口口口③ |----|
65
①②③④ |①-②-|
⑦⑥⑤④ |③-④-|
口口口口 |--⑤-|
口口口口 |⑥-⑦-|
66
②②②② |----|
③口口③ |①---|
③①①③ |②---|
①口口① |③---|
67
口口口口 |①---|
口①①口 |--②-|
口②②口 |----|
③①①③ |③---|
68
口口口口 |--①-|
口③②口 |----|
①口口① |②---|
口口口口 |③---|
69
口口口口 |①---|
口口口口 |②---|
④③②① |③---|
口口口口 |④---|
70
口口①口 |①--②|
口④②口 |--③-|
口口③口 |④---|
口口⑤口 |--⑤-|
71
口⑤口口 |①---|
口④口口 |②---|
口③②口 |③--④|
口①口口 |--⑤-|
72
口口口口 |①---|
口口①口 |----|
口口口口 |----|
口口口口 |----|
73
口口①口 |①--②|
口④②⑤ |--③-|
口口③口 |④---|
口口口口 |⑤---|
74
口口口口 |①---|
①口口口 |----|
口③口口 |----|
口口②口 |②-③-|
75
②口口② |①---|
口口①口 |----|
③口口③ |②---|
口口口口 |--③-|
76
口①①口 |①---|
口③②口 |----|
口②③口 |②---|
口口口口 |③---|
77
口②①口 |①---|
②⑤⑤① |②---|
口④④口 |③--④|
口③③口 |--⑤-|
78
①口口① |①--②|
②口口② |--③-|
③口⑤③ |④---|
口④④口 |--⑤-|
79
口②②口 |①---|
④口口③ |②---|
⑥①口⑤ |③-④-|
口口口口 |⑤-⑥-|
80
口口口口 |①--②|
口口口口 |--③-|
口口④口 |④---|
口③②① |----|
81
口①口口 |①--②|
⑥②口⑥ |--③-|
口③口口 |④-⑤-|
口⑤④口 |--⑥-|
82
口②①口 |--①-|
口④③口 |②-③-|
口口⑤口 |④-⑤-|
口口口口 |----|
83
口③②① |①--②|
口③②① |--③-|
口④④口 |④---|
口⑤⑤口 |⑤---|
84
口口口口 |①---|
①口口① |----|
口口口口 |----|
口口口口 |----|
85
⑤②①④ |①-②-|
②⑤④① |③-④-|
⑥③③⑥ |⑤-⑥-|
⑦口口⑦ |--⑦-|
86
口口口口 |--①-|
②④③② |--②-|
口①①口 |--③-|
口口口口 |④---|
87
⑥⑥⑥⑥ |①-②-|
⑤口口⑤ |③-④-|
口④②口 |--⑤-|
③口口① |--⑥-|
88
口口口口 |----|
口口口口 |----|
口口口口 |----|
口口口口 |----|
89
④④①① |①-②-|
口⑤②口 |③-④-|
口⑥③⑧ |⑤-⑥-|
口口⑦⑦ |⑦-⑧-|
90
⑦口口⑦ |①-②-|
④⑥⑤① |③-④-|
③口口口 |⑤-⑥-|
②②口口 |--⑦-|

不確定度: 0

最終更新:2016年04月12日 02:52