千年ノ理
猫叉Master

EXTREME

Level: 10
BPM: 153
Notes: 828

1
口口口口 |----|
口口口口 |----|
口口口口 |----|
口口口口 |----|
2
口口口口 |----|
口口口口 |----|
口口口口 |----|
口①口口 |①---|
3
口①口② |①---|
①④口口 |--②-|
⑦③⑤口 |③-④⑤|
口⑦口⑥ |⑥-⑦-|
4
口口口口 |①---|
口口口口 |----|
口口口①
口口①口

口口口②
⑤口口口
④口口口 |②-③-|
③④⑤口 |④-⑤-|
5
①④口② |①---|
口⑤口口 |--②-|
口⑥③⑧ |③--④⑤⑥|
口⑦口① |⑦-⑧-|
6
①口口口 |①---|
口口口④ |----|
口口口口 |②---|
②口③口 |③-④-|
7
⑥①②口 |①---|
①口③口 |---②③④|
口口④⑦ |⑤-⑥-|
⑧口⑤口 |⑦-⑧-|
8
口⑧⑤① |①-②③|
口②口口 |④-⑤-|
⑦口③⑦ |⑥---|
口⑥口④ |⑦-⑧-|
9
③口口口 |①---|
口口口口 |②-③-|
口口口口
①②②①

口口口⑤
口⑥⑥口
口口④口 |④-⑤-|
口口口⑦ |⑥-⑦-|
10
口①①口 |①---|
②③口口 |②---|
⑤口口⑤ |③-④-|
口口④口 |⑤---|
11
口口口⑤ |①-②③|
②③④口 |④-⑤-|
口口①口
口口口①

口口⑩口
口口口口
⑦⑧⑨⑥ |⑥-⑦⑧|
口口⑥口 |⑨-⑩-|
12
口口口⑤ |①-②③|
②③④① |④-⑤-|
⑧⑦口⑥ |⑥-⑦-|
⑦⑧⑥① |--⑧-|
13
口口⑩⑤ |①-②③|
②③④口 |④-⑤-|
⑦⑧⑨⑥ |⑥-⑦⑧|
口口⑥① |⑨-⑩-|
14
⑤④口口 |①-②-|
③②口① |--③-|
④⑤口口 |--④-|
②③口① |--⑤-|
15
口⑤口口 |①-②③|
口④③② |④-⑤-|
口口口口
口口①①

口口⑦⑥
口口口⑨
口口⑨⑦ |⑥-⑦-|
⑥⑧口口 |⑧-⑨-|
16
①口口⑤ |①-②③|
②③④口 |④-⑤-|
口口口口
口口口口

口⑧口口
⑧口口口
⑦口口口 |⑥-⑦-|
口⑦⑥口 |--⑧-|
17
口口⑤口 |①-②③|
口②③④ |④-⑤-|
口①①口
口口口口

⑥⑨口口
⑨口口口
口⑧口口 |⑥-⑦-|
⑦口⑦口 |⑧-⑨-|
18
口口⑤口 |①-②③|
口④口口 |④-⑤-|
口口③②
⑤①口口

⑥口口口
口口口⑦
口口口口 |⑥-⑦-|
口⑧⑦口 |⑧---|
19
口①⑤① |①---|
②口口口 |②---|
③⑥口口 |③-④-|
⑤口口④ |⑤-⑥-|
20
①口口④ |①---|
②口口⑤ |②---|
③口口⑥ |③-④⑤|
⑥口⑧⑦ |⑥⑦⑧-|
21
①口口⑤ |①---|
②口口口 |②---|
③口⑥口 |③-④-|
⑤④口口 |⑤-⑥-|
22
①②②口 |①---|
②口③③ |②---|
③④④口 |③---|
④口口口 |④---|
23
①口口③ |①---|
②口口口 |②---|
③口④口 |③---|
④②①① |④---|
24
①口①口 |①---|
②⑥口③ |②-③-|
④⑦口⑤ |④-⑤-|
⑥⑧④口 |⑥⑦⑧-|
25
①口口③ |①---|
②口④口 |②---|
③口口口 |③---|
④口口② |④---|
26
①口⑤④ |①-②-|
③③口⑥ |③-④-|
⑤口⑦② |⑤-⑥-|
⑦口①⑧ |⑦-⑧-|
27
①⑥⑦④ |①②③④|
⑤②③⑧ |⑤⑥⑦⑧|
口口口口
口口口口

⑬口口口
口⑭口口
⑨口⑮⑫ |⑨⑩⑪⑫|
口⑩⑪⑯ |⑬⑭⑮⑯|
28
⑫②⑯④ |①②③④|
①⑪③⑮ |⑤⑥⑦⑧|
⑩⑥⑭⑧ |⑨⑩⑪⑫|
⑤⑨⑦⑬ |⑬⑭⑮⑯|
29
⑨⑥⑪⑧ |①②③④|
⑤⑩⑦⑫ |⑤⑥⑦⑧|
⑬②⑮④ |⑨⑩⑪⑫|
①⑭③⑯ |⑬⑭⑮⑯|
30
⑫②⑩④ |①②③④|
①⑪③⑨ |⑤⑥⑦⑧|
⑯⑥⑭⑧ |⑨⑩⑪⑫|
⑤⑮⑦⑬ |⑬⑭⑮⑯|
31
口⑥⑦① |①②③④|
⑤口口⑧ |⑤⑥⑦⑧|
口②口④
口口③口

⑨口口⑫
口⑩⑪口
⑬口口⑯ |⑨⑩⑪⑫|
口⑭⑮口 |⑬⑭⑮⑯|
32
⑤口口⑧ |①②③④|
口⑥⑦口 |⑤⑥⑦⑧|
口②③口
①口口④

口⑩⑪口
⑨口口⑫
口口口口 |⑨⑩⑪⑫|
⑬⑭⑮⑯ |⑬⑭⑮⑯|
33
①⑥⑦④ |①②③④|
⑨⑭⑮⑫ |⑤⑥⑦⑧|
⑤②③⑧ |⑨⑩⑪⑫|
⑬⑩⑪⑯ |⑬⑭⑮⑯|
34
④③②① |①②③④|
⑫⑪⑩⑨ |⑤⑥⑦⑧|
⑧⑦⑥⑤ |⑨⑩⑪⑫|
⑯⑮⑭⑬ |⑬⑭⑮⑯|
35
②口①① |①---|
口口口口 |--②-|
口口口口
口口口口

口口⑦口
口④口口
口口⑤③ |③-④⑤|
口口口⑥ |⑥-⑦-|
36
口口口③ |①---|
口口⑤口 |②---|
⑥口口口 |③-④-|
①②口④ |⑤-⑥-|
37
口①④② |①---|
口口⑤口 |--②-|
⑧口⑥口 |③--④⑤⑥|
口③⑦口 |⑦-⑧-|
38
口①③口 |①---|
口口口③ |②---|
⑤口口口 |③---|
②④口口 |④-⑤-|
39
①①口⑦ |①---|
②③④⑤ |---②③④|
口⑧口口 |⑤-⑥-|
⑥口口口 |⑦-⑧-|
40
②口口口 |①-②③|
口③口口 |④-⑤-|
⑤口④口
口口口①

口⑧口口
口口口口
口口口口 |⑥---|
口口⑥⑦ |⑦-⑧-|
41
口⑥口口 |①---|
④口⑦⑤ |②-③-|
口②口③ |④-⑤-|
①口口口 |⑥-⑦-|
42
口口③口 |①---|
口口口③ |②---|
⑦⑥⑤④ |③--④⑤⑥|
②口①口 |⑦---|
43
①口口① |①---|
②①①③ |②-③-|
口口口口
口口口口

口口⑤口
口⑧⑥口
④口⑦口 |④-⑤⑥|
⑦④口口 |⑦-⑧-|
44
①口口口 |①---|
②⑥口口 |②---|
③口口⑤ |③-④-|
⑤口④① |⑤-⑥-|
45
①③⑤① |①---|
②口⑥④ |②-③-|
④⑨⑦口 |④--⑤⑥⑦|
⑧口⑧口 |⑧-⑨-|
46
①口口① |①---|
②⑤口口 |②---|
③口口口 |③---|
④口口④ |④-⑤-|
47
①⑦口① |①---|
口口口⑧ |---②③④|
⑤④③② |⑤-⑥-|
口口⑥口 |⑦-⑧-|
48
口⑧口② |①-②③|
⑤口③口 |④-⑤-|
口④口口 |⑥---|
①口⑦⑥ |⑦-⑧-|
49
口口口⑤ |①---|
⑥口口口 |②-③-|
④口③⑦ |④-⑤-|
①②口口 |⑥-⑦-|
50
口口口口 |①---|
口①口口 |②---|
口口口口
②口口口

⑦口口口
口⑥口口
口口⑤口 |③---|
口③口④ |④⑤⑥⑦|
51
⑥③⑤① |①--②|
③口①⑤ |③--④|
口口⑧① |⑤-⑥-|
⑦②④口 |⑦-⑧-|
52
口①口口 |①---|
①③②口 |--②-|
③⑨⑧② |③-④⑤|
⑦⑥⑤④ |⑥⑦⑧⑨|
53
②②①① |①---|
⑥④③⑤ |②---|
口口口口 |③-④-|
④⑥⑤③ |⑤-⑥-|
54
②④④② |①-②-|
口口口口 |--③-|
③①①③ |④--⑤⑥⑦|
⑧⑦⑥⑤ |⑧---|
55
①②④① |①--②|
①③口① |③--④|
③①①口
口口口口

口口口口
⑧口⑤口
口口⑦⑤ |⑤-⑥-|
口⑥口口 |⑦-⑧-|
56
口口口① |①--②|
口④⑤口 |③-④-|
④口口⑤ |⑤---|
⑥口③② |⑥---|
57
口口③口 |①---|
口口口③ |②-③-|
②口口口
口②口①

⑥④口口
④⑦口口
口口⑧⑤ |④-⑤-|
口口⑤⑨ |⑥⑦⑧⑨--|
58
口②④口 |①--②|
口口③口 |③--④|
①①口口
口③口口

口口口口
口⑤口⑥
口⑧⑦口 |⑤--⑥⑦⑧|
⑨口⑤口 |⑨---|
59
⑥③⑤① |①--②|
③口①⑤ |③--④|
口口⑧① |⑤-⑥-|
⑦②④口 |⑦-⑧-|
60
口①口口 |①---|
①③②口 |--②-|
③⑨⑧② |③-④⑤|
⑦⑥⑤④ |⑥⑦⑧⑨|
61
②②①① |①---|
⑥④③⑤ |②---|
口口口口 |③-④-|
④⑥⑤③ |⑤-⑥-|
62
②④④② |①-②-|
口口口口 |--③-|
③①①③ |④--⑤⑥⑦|
⑧⑦⑥⑤ |⑧---|
63
①②④① |①--②|
①③口① |③--④|
③①①口
口口口口

口口口口
⑧口⑤口
口口⑦⑤ |⑤-⑥-|
口⑥口口 |⑦-⑧-|
64
口口口① |①--②|
口④⑤口 |③-④-|
④口口⑤ |⑤---|
⑥口③② |⑥---|
65
口口③口 |①---|
口口口③ |②-③-|
②口口口
口②口①

⑥④口口
④⑦口口
口口⑧⑤ |④-⑤-|
口口⑤⑨ |⑥⑦⑧⑨--|
66
⑨⑬⑥② |①②③④|
⑮⑪④⑧ |⑤⑥⑦⑧|
⑦③⑫⑯ |⑨⑩⑪⑫|
①⑤⑭⑩ |⑬⑭⑮⑯|
67
⑨⑬⑥② |①②③④|
⑮⑪④⑧ |⑤⑥⑦⑧|
⑦③⑫⑯ |⑨⑩⑪⑫|
①⑤⑭⑩ |⑬⑭⑮⑯|
68
⑨⑬⑥② |①②③④|
⑮⑪④⑧ |⑤⑥⑦⑧|
⑦③⑫⑯ |⑨⑩⑪⑫|
①⑤⑭⑩ |⑬⑭⑮⑯|
69
⑤口口② |①②③④|
口口④⑧ |⑤⑥⑦⑧|
⑦③口口
①①口⑥

口⑪口⑭
⑮⑨口口
口口⑩⑯ |⑨⑩⑪⑫|
⑬口⑫口 |⑬⑭⑮⑯|
70
③口②口 |①②③④|
口⑦口⑥ |⑤⑥⑦⑧|
⑤口⑧口
口①口④

口⑪⑭⑩
⑮口口口
口口口⑯ |⑨⑩⑪⑫|
⑨⑬⑫口 |⑬⑭⑮⑯|
71
③口口口 |①②③④|
口⑦②⑥ |⑤⑥⑦⑧|
⑤①⑧口
口口口④

⑮⑪口⑩
口口⑭口
口⑬口口 |⑨⑩⑪⑫|
⑨口⑫⑯ |⑬⑭⑮⑯|
72
口③②口 |①--②|
③口口② |--③-|
①口口口
口①口口

口口⑥口
口口口⑥
⑤口口④ |-④--|
口⑤④口 |⑤--⑥|
73
口①口口 |--①-|
①口口口 |-②--|
口口口②
口口②口

口⑦⑤口
⑦口口⑤
③④⑥口 |③-④⑤|
口③口口 |-⑥⑦-|
74
口口⑥口 |①②-③|
口①③⑥ |④-⑤⑥|
④⑤口②
口④②口

口⑧口口
⑧⑨⑪口
口口⑦⑩ |-⑦⑧-|
口口⑩口 |⑨⑩-⑪|
75
口⑦④② |①②③④|
⑦口口④ |⑤⑥⑦⑧|
①③⑥口
⑤①口⑧

⑪口⑯⑭
口⑨⑫⑯
⑬⑮口⑩ |⑨⑩⑪⑫|
口⑬⑩口 |⑬⑭⑮⑯|
76
口口口口 |①---|
口口口口 |----|
口口口口 |----|
①口口口 |----|

不確定度: 0

最終更新:2016年04月18日 01:18