竹取飛翔 ~ Lunatic Princess (Ryu☆Remix)
Ryu☆

EXTREME

Level: 10
BPM: 171
Notes: 750

1
口口口口 |----|
口口口口 |----|
口口口口 |----|
口口口口 |----|
2
口口口口 |----|
口口口口 |----|
口 |①---|
口口口口

口口口口

口口
口口口口 |②---|
3
|①---|
口口
口口口口
口口①口

口口口
口口⑤② |②-③-|
口口口④ |④-⑤-|


口口⑥口
口口口口
口口口口
口口口 |⑥-⑦-|
4
口口口口 |①---|
口口口口
口口
口口①口

⑥④⑥口
⑦③⑤② |②-③-|
口口④ |④-⑤-|
口口口口 |⑥-⑦-|
5
口口口口 |①---|
口口口口

口口①口

⑥⑤⑥口
⑦④⑤② |②-③-|
口④ |④-⑤-|
②口口口 |⑥-⑦-|
6
口口口口 |①---|
口口口口
口口口口


口口口口
口口口口 |②---|

口口口

口口口口
口口口口
口口口 |③---|


口口口口
④⑤⑥口
⑦⑧⑨口
口口口 |④⑤⑥⑦⑧⑨|
7
|①---|
口口口口
口口口口
口口①口

口口口
口口⑤② |②-③-|
口口口④ |④-⑤-|


口口⑥口
口口口口
口口口口
口口口 |⑥-⑦-|
8
口口口口 |①---|
口口口口
口口
口口①口

⑥④⑥口
⑦③⑤② |②-③-|
口口④ |④-⑤-|
口口口口 |⑥-⑦-|
9
口口口口 |①---|
口口口口

口口①口

⑥⑤⑥口
口④⑤② |②-③-|
口④ |④-⑤-|
②⑦口口 |⑥-⑦-|
10
口口口口 |①---|
|----|
口口口口
口口口口

口口口
口口
口口口 |②---|
口口口

口口③
口口口口
口口口口
口口口口 |③---|
11
口口口口 |①---|
|②---|
②②口口


口口口口
③③口口
口口口口 |③---|
④④口口 |④---|
12
口①①口 |①---|
口③③ |②---|
口②②口 |③---|
口④④ |④-⑤-|
13
①①口口 |①---|
③③口口 |②---|
②②口口 |③---|
④④口口 |④---|
14
①①④④ |①---|
④⑤⑥口 |②---|
⑦⑧⑨口 |③---|
③③②② |④⑤⑥⑦⑧⑨|
15
①口口口 |①-②-|
⑦口⑥④ |③-④-|
口口口② |⑤-⑥-|
③⑤⑧口 |⑦-⑧-|
16
口①④口 |①-②-|
⑦口口② |③-④-|
③⑤⑧口 |⑤-⑥-|
口口口⑥ |⑦-⑧-|
17
口①口口 |①-②-|
口⑤⑧② |③-④-|
⑦口口④ |⑤-⑥-|
口③⑥口 |⑦-⑧-|
18
口口口口 |①---|
|----|
口口口口
口口口口

口口口
口口
口口口 |②---|
口口口

口④③
口③口口
口口口口
口口口口 |③-④-|
19
|①-②-|
口口口口
口口口口
口口①②

口口口
口口⑤⑥ |③-④-|
口口③④ |⑤-⑥-|


口口⑦⑧
口口口口
口口口口
口口口 |⑦-⑧-|
20
口口口口 |①-②-|
口口口口
口口
口口①②

⑦⑤⑦⑧
⑧④⑤⑥ |③-④-|
口③④ |⑤-⑥-|
口口口口 |⑦-⑧-|
21
口口口口 |①-②-|
口口口口

口口①②

⑦⑥⑦⑧
⑧⑤⑤⑥ |③-④-|
③④ |⑤-⑥-|
③口口口 |⑦-⑧-|
22
口口口口 |①---|
口口口口
口口口口
口①

口口口口
口口口口 |②---|

口口口

口口③口
口口
口口 |③---|
口口口口

口⑤口口
口④
口口口口
口口口口 |④-⑤-|
23
|①-②-|
口口口口
口口口口
口口①②

口口口
口口⑤⑥ |③-④-|
口口③④ |⑤-⑥-|


口口⑦⑧
口口口口
口口口口
口口口 |⑦-⑧-|
24
口口口口 |①-②-|
口口口口
口口
口口①②

⑦⑤⑦⑧
⑧④⑤⑥ |③-④-|
口③④ |⑤-⑥-|
口口口口 |⑦-⑧-|
25
口口口口 |①-②-|
口口口口

口口①②

⑦⑥⑦⑧
口⑤⑤⑥ |③-④-|
③④ |⑤-⑥-|
③⑧口口 |⑦-⑧-|
26
口口口口 |①-②-|

口口口②
口口②口

口⑤口⑤
③口 |--③-|
口口 |④-⑤-|
口口口③

口口口口
口⑥

口口口口 |⑥---|
27
口口口 |①---|
口口口 |----|
口口 |----|
口口口口 |----|
28
口口口口 |①---|
|----|
口口口
口口口口

口口口
口口
口口口 |②---|
口口口

口口③
口口口口
口口口口
口口口口 |③---|
29
口⑤⑥⑦ |①-②-|
口④③⑧ |③-④-|
口①②口 |⑤-⑥-|
口口口口 |⑦-⑧-|
30
口口口口 |①-②-|
⑦⑧口口 |③-④-|
⑥⑤口① |⑤-⑥-|
口④③② |⑦-⑧-|
31
口①②口 |①-②-|
口口③④ |③-④-|
口口⑥⑤ |⑤-⑥-|
口⑧⑦口 |⑦-⑧-|
32
⑥⑦⑧口 |①-②-|
⑤④口口 |③-④-|
②③口口 |⑤-⑥-|
①口口口 |⑦-⑧-|
33
口口口口 |①-②-|
口口①② |③-④-|
⑧口口③ |⑤-⑥-|
⑦⑥⑤④ |⑦-⑧-|
34
口口⑧⑦ |①-②-|
①②③⑥ |③-④-|
口口④⑤ |⑤-⑥-|
口口口口 |⑦-⑧-|
35
口③口口 |①---|
①③口口 |②---|
①口⑤② |③---|
口④口② |④-⑤-|
36
口口口口 |①---|
|----|
口口口口
口口口口

口口口
口口
口口口 |②---|
口口口

口口③
口口口口
口口口口
口口口口 |③---|
37
②口口④ |①---|
口口口口 |②---|
口口口口 |③---|
①口口③ |④---|
38
口⑦口口 |①-②-|
口⑤⑥口 |③-④-|
口③④口 |⑤-⑥-|
口①②口 |⑦---|
39
②口⑤④ |①---|
口口口口 |②---|
口口口口 |③---|
①口口③ |④-⑤-|
40
④口口口 |①-②-|
⑤①口口 |③-④⑤|
口口②口
口③口口

口口口⑧
口⑫口⑨
⑥口口⑩ |⑥⑦⑧⑨|
⑦口口⑪ |⑩⑪⑫-|
41
③①②④ |①---|
口口口口 |②---|
③①②④ |③---|
口口口口 |④---|
42
口⑦④口 |①-②-|
口②⑥口 |③-④-|
口⑦③⑤ |⑤-⑥-|
口①口口 |⑦---|
43
②口口口 |①---|
口⑤③① |②---|
②口④口 |③---|
口口③① |④-⑤-|
44
①口口口 |①---|
|----|
口口口口
口口口口

口口口
口口
口口口 |②---|
口口口

口口③
口口口口
口口口口
口口口口 |③---|
45
②②④④ |①---|
口口口口 |②---|
口口口口 |③---|
口①③口 |④---|
46
④④口口 |①-②-|
③③⑦⑦ |③-④-|
②②⑥⑥ |⑤-⑥-|
①①⑤⑤ |⑦---|
47
口口口口 |----|
口口口口 |----|
口口口口 |----|
口口口口 |----|
48
|①---|
口口口口 |----|
口口口口
口口口口

口口口
口口口口
口口口口 |②---|
|----|
49
②②④④ |①---|
口口口口 |②---|
口口口口 |③---|
口①③ |④---|
50
⑥口口⑥ |①--②|
③①①③ |--③-|
⑤口口⑤ |④-⑤-|
②④④② |⑥---|
51
口①①口 |①---|
口②②口 |②---|
口③③口 |③---|
口④⑤口 |④-⑤-|
52
口口口口 |①---|
|----|
口口口口
口口口①

口口口
口口
口口口 |②---|
口口口

口口③
口口口口
口口口口
口口口口 |③---|
53
口口口口 |--①-|
口口①③ |--②-|
口口④② |--③-|
口口口口 |--④-|
54
口口口口 |--①-|
口口①③ |--②-|
口口④② |--③-|
口口口口 |--④-|
55
①①口口 |①---|
③③口口 |②---|
②②口口 |③---|
④④口口 |④---|
56
①①口口 |①---|
口口口口 |②---|
②②口口
口口口口

口⑥⑤④
③③口口
口口口口 |③---|
口⑨⑧⑦ |④⑤⑥⑦⑧⑨|
57
口⑥⑤口 |①---|
③口口④ |②---|
①口口② |③---|
口口口口 |④-⑤⑥|
58
①口口② |①---|
口⑥⑤口 |②---|
口口口口 |③---|
③口口④ |④-⑤⑥|
59
②③④口 |①---|
①⑩⑨⑧ |②③④⑤⑥⑦|
⑤⑥⑦口 |----|
口⑬⑫⑪ |⑧⑨⑩⑪⑫⑬|
60
口③③② |①---|
①口口口 |②---|
口③③② |③---|
口口口口 |----|
61
①②口口 |①---|
①口②口 |②---|
①②口口
①②②口

口口③③
口⑤口③
④口③③ |③---|
口口口口 |④-⑤-|
62
|①-②-|
口口口口
口口口口
口口①②

口口口
口口⑤⑥ |③-④-|
口口③④ |⑤-⑥-|


口口⑦⑧
口口口口
口口口口
口口口 |⑦-⑧-|
63
口口口口 |①-②-|
口口口口
口口
口口①②

⑦⑤⑦⑧
⑧④⑤⑥ |③-④-|
口③④ |⑤-⑥-|
口口口口 |⑦-⑧-|
64
口口口口 |①-②-|
口口口口

口口①②

⑦⑥⑦⑧
⑧⑤⑤⑥ |③-④-|
③④ |⑤-⑥-|
③口口口 |⑦-⑧-|
65
口口口口 |①-②-|
口口口口
口口口②
口②

口口口口
口口口口 |③-④-|

④口口

口口口口
口口
口口 |⑤-|
口口口口

口⑧⑥口
⑦⑦
口口口口 |⑥-|
口口口口 |⑦-⑧-|
66
|①-②-|
口口口口
口口口口
口口①②

口口口
口口⑤⑥ |③-④-|
口口③④ |⑤-⑥-|


口口⑦⑧
口口口口
口口口口
口口口 |⑦-⑧-|
67
口口口口 |①-②-|
口口口口
口口
口口①②

⑦⑤⑦⑧
⑧④⑤⑥ |③-④-|
口③④ |⑤-⑥-|
口口口口 |⑦-⑧-|
68
口口口口 |①-②-|
口口口口

口口①②

⑦⑥⑦⑧
口⑤⑤⑥ |③-④-|
③④ |⑤-⑥-|
③⑧口口 |⑦-⑧-|
69
口口口口 |①-②-|

口口口②
口口②口

口口④口
⑥③④ |--③-|
口口口口 |--④-|
⑤⑤口③ |⑤-⑥-|
70
|①-②-|
口口口口
口口口口
口口①②

口口口
口口⑤⑥ |③-④-|
口口③④ |⑤-⑥-|


口口⑦⑧
口口口口
口口口口
口口口 |⑦-⑧-|
71
口口口口 |①-②-|
口口口口
口口
口口①②

⑦⑤⑦⑧
⑧④⑤⑥ |③-④-|
口③④ |⑤-⑥-|
口口口口 |⑦-⑧-|
72
口口口口 |①-②-|
口口口口

口口①②

⑦⑥⑦⑧
⑧⑤⑤⑥ |③-④-|
③④ |⑤-⑥-|
③口口口 |⑦-⑧-|
73
口口口口 |①---|
口口口口
口口口口
口①

口口口口
口口口口 |②---|

口口口

口口③口
口口
口口 |③---|
口口口口

口⑤口口
口④
口口口口
口口口口 |④-⑤-|
74
|①-②-|
口口口口
口口口口
口口①②

口口口
口口⑤⑥ |③-④-|
口口③④ |⑤-⑥-|


口口⑦⑧
口口口口
口口口口
口口口 |⑦-⑧-|
75
口口口口 |①-②-|
口口口口
口口
口口①②

⑦⑤⑦⑧
⑧④⑤⑥ |③-④-|
口③④ |⑤-⑥-|
口口口口 |⑦-⑧-|
76
口口口口 |①-②-|
口口口口

口口①②

⑦⑥⑦⑧
口⑤⑤⑥ |③-④-|
③④ |⑤-⑥-|
③⑧口口 |⑦-⑧-|
77
口口口口 |①-②-|

口口口②
口口②口

口口⑤⑥
口③⑤ |--③-|
口④⑥口 |④-⑤-|
口口口③ |⑥---|
78
口 |①---|
口 |----|
口 |----|
口 |----|
79
口口口口 |①---|
|----|
口口口口


口口口
口口
口口口 |②---|
口口口

口口③
口口口口
口口口口
口口口口 |③---|

不確定度: 0

最終更新:2016年04月18日 01:17