女々しくて [2]
ゴールデンボンバー

EXTREME

Level: 9
BPM: 143
Notes: 593

1
口口口口 |----|
口口口口 |----|
口口口口 |----|
口口口口 |----|
2
①⑥②⑦ |①②③④|
③口④口 |⑤-⑥⑦|
⑤口口口
口口口口

⑪口⑫口
⑬⑧⑭⑨
口⑩口口 |⑧⑨⑩-|
口口口口 |⑪⑫⑬⑭|
3
口口口口 |①---|
口口口口 |----|
①口口口
口口口口

②②口口
③③口口
④④口口 |②--③|
口口口口 |--④-|
4
口③口 |①---|
口口口 |②-③-|
口口
口②

⑧口⑥⑦
④⑤口口
|④⑤-⑥|
口口口口 |⑦-⑧-|
5
口 |--①-|
口口口① |②-③-|
口口口口 |④-|
③②口口

口口口

口口口口 |-⑤|
口口口口

口口口口
口口口
口口
口口口口 |--⑥-|
6
⑧②口⑦ |①---|
④⑤③⑥ |②-③-|
①① |④⑤-⑥|
口口口 |⑦-⑧-|
7
口口口口 |①---|
口口口口 |----|
口口口口


口口口口
口口口口
口 |②---|
口口口 |----|
8
口口口口 |①-②③|
⑥①①口 |④⑤⑥-|
④口
②口口③

口口口口
口⑪口口
口⑨⑩口 |⑦⑧⑨⑩|
口⑦⑧口 |⑪---|
9
口口口口 |--①②|
⑤⑩口口 |③④⑤-|
③⑧⑨④ |⑥⑦⑧⑨|
①⑥⑦② |⑩---|
10
口口口口 |--①②|
⑤⑩口口 |③④⑤-|
③⑧⑨④ |⑥⑦⑧⑨|
①⑥⑦② |⑩---|
11
口口 |①---|
口口 |----|
口口
口口

口口
②口③④
⑤口⑥口 |②-③④|
口口口口 |⑤-⑥-|
12
口口 |--①-|
③①口口 |②-③-|
口②口口 |④-|
口口口口

口口口
口口
口口口口 |-⑤|
口口口口

口口口口
口口
口口
口口口口 |--⑥-|
13
口口 |-①②-|
口④口口 |③-④-|
口③口 |⑤-|
口②口口

口口口
口口
口口口口 |-⑥|
口口口口

口口口口
口口
口口
口口口口 |--⑦-|
14
②③④口 |-①②-|
口口 |③-④-|
口口口 |⑤-|
口口口口

口口口口
口口口
口口 |-⑥|
口口口口

口口口口
口口口口
口口
口口 |--⑦-|
15
口口口口 |-①②-|
|③-④-|
口口③口
口②口

⑥口口口
⑦口口
⑧口口⑦ |-⑤⑥-|
口口口⑦ |⑦-⑧-|
16
口③口口 |--①-|
口② |②-③-|
口①口口 |④-|
口口口口

口口口口
口口口
口口 |-⑤|
口口口口

口口口口
口口口口
口口
口口 |--⑥-|
17
②④口③ |-①②-|
口口 |③-④-|
口口口口 |⑤-|
口口口

口口口口
口口口
口口 |-⑥|
口口口口

口口口口
口口口口
口口
口口 |--⑦-|
18
口口④口 |-①②-|
口③口口 |③-④-|
口口②口
口口口

口口口
口口口
口口口 |⑤-|
口口口

口口
口口
口口 |-⑥|
口口

口口
口口口口
口口口口
|--⑦-|
19
口口口口 |--①-|
口口②② |②-|
①口口②
口口口

口口④④
|③-|
口口口口 |④---|
口口⑤⑤ |⑤---|
20
②口口② |①---|
③④口 |②-③④|
口①①口
口口口口

口⑦口口
⑦口口口
⑥⑥⑥⑥ |--⑤-|
⑤⑤⑤⑤ |⑥-⑦-|
21
口口①② |①-②-|
口①②口 |--③-|
③口口口
口口口③

⑦⑥口口
口⑤⑥⑦
口④⑤口 |④-⑤-|
口口④口 |⑥-⑦-|
22
⑤③③⑤ |----|
口②②口 |①-②③|
③⑥⑥③ |--④-|
①④④① |⑤-⑥-|
23
④②②④ |①-②-|
①③③① |③-④-|
②口口②
①③③①

口口口口
⑦口口⑦
⑥口口⑥ |--⑤-|
⑤口口⑤ |⑥-⑦-|
24
口口口 |----|
口口口 |①---|
口口口
口口口

口口
口口
口口 |②---|
口口

口口
口口
口口
口 |③---|
25
|①---|
口口口口
口口口口
口口

口②口
|②-③-|
口口口口
口口口口

口口口口
④⑤⑥
口口口口 |--④-|
口口口口 |⑤-⑥-|
26
口口口口 |①---|
口口口口 |----|

口口口口

口口口口
口③口口
口口口 |----|
口口口口 |②-③-|
27
②①②③ |①--②|
①口①口 |--③-|
②①②③
③口③口

口⑤口口
⑤④⑤④
口⑤口口 |④---|
口④口④ |⑤---|
28
口口口① |①-②-|
口口口③ |③--④|
④口①口
口口③②

⑥口口口
⑤口口口
口⑥口口 |⑤-⑥-|
⑦⑤口⑦ |--⑦-|
29
⑤⑤口口 |--①-|
③①②④ |②-③-|
①③④② |④-⑤-|
口口口口

口口
口口
口口
口口 |⑥---|
30
⑥⑥ |①--②|
⑦①①口 |③--④|
⑤⑤③③ |⑤-⑥-|
⑦④②口 |--⑦-|
31
③②③② |--①-|
口①口① |②-③-|
③②③②
口①口①

口口口口
口⑤口⑤
口口口口 |④---|
④⑤④⑤ |⑤---|
32
口③口③ |①--②|
口口口口 |③--④|
①②口②
④口④口


⑤⑥⑤⑥
|⑤-⑥-|
口⑥口⑥ |--⑦-|
33
口①② |--①-|
口③③口 |②-③-|
口①②
口②②口



口 |④-⑤-|
④ |⑥---|
34
⑤ |①-②-|
口④口口 |③-④⑤|
口口口⑤
②②③③

⑥⑦⑧口

⑥⑦⑧口 |--⑥-|
|⑦-⑧⑨|
35
口口口口 |----|
②①口 |----|
口口口口 |--①-|
①②口 |--②-|
36
|①---|
口口口口 |----|

口口口口

口口口
口口口口
口口口 |----|
口口口口 |②---|
37
⑥①⑦② |①②③④|
口③口④ |⑤-⑥⑦|
口⑤口口
口口口口

口口口口
⑧⑫⑨⑫
⑩口⑪口 |⑧⑨⑩-|
口⑫口⑫ |⑪-⑫-|
38
口①口① |①---|
③口③口 |②--③|
口①口①
②口②口



|④-⑤-|
口④口④ |----|
39
①⑥②⑦ |①②③④|
③口④口 |⑤-⑥⑦|

口口口口

⑪口⑪口
口⑧口⑨
⑫⑩⑫口 |⑧⑨⑩-|
口口口口 |⑪-⑫-|
40
④口⑤口 |①--②|
③ |③--④|
⑤ |⑤-⑥-|
①②①③ |----|
41
⑥①⑦② |①②③④|
口③口④ |⑤-⑥⑦|

口口口口

口口口口
⑧口⑨口
⑩口口口 |⑧⑨⑩-|
口⑪⑫口 |⑪-⑫-|
42
②⑤⑤② |①---|
口⑥⑥口 |②--③|
口④④口 |④-⑤-|
①③⑦① |⑥-⑦-|
43
|①---|
口口口口
口口口口
口口口口

口口口
|②---|
口口口口
口口口口

口口口口
口口口
|③---|
口口口口

口⑤⑤口
口口口口
口口口
口口④④ |④-⑤-|
44
口口口口 |①---|
|----|
口口口口
口口口口

口口口口
口口口
|②---|
口口口口 |----|
45
①⑥②⑦ |①②③④|
③口④口 |⑤-⑥⑦|
⑤口口
口口口口

⑪口⑫口
⑬⑧⑭⑨
口⑩口口 |⑧⑨⑩-|
口口口口 |⑪⑫⑬⑭|
46
口口口口 |①---|
口口口口 |----|
①口口口
口口口口

②②口口
③③口口
④④口口 |②--③|
口口口口 |--④-|
47
口③口 |①---|
口口口 |②-③-|
口口
口②

⑧口⑥⑦
④⑤口口
|④⑤-⑥|
口口口口 |⑦-⑧-|
48
口 |--①-|
口口口① |②-③-|
口口口口 |④-|
③②口口

口口口

口口口口 |-⑤|
口口口口

口口口口
口口口
口口
口口口口 |--⑥-|
49
⑧②口⑦ |①---|
④⑤③⑥ |②-③-|
①① |④⑤-⑥|
口口口 |⑦-⑧-|
50
口口口口 |①---|
口口口口 |----|
口口口口


口口口口
口口口口
口 |②---|
口口口 |----|
51
口口口口 |①-②③|
⑥①①口 |④⑤⑥-|
④口
②口口③

口口口口
口⑪口口
口⑨⑩口 |⑦⑧⑨⑩|
口⑦⑧口 |⑪---|
52
口口口口 |--①②|
⑤⑩口口 |③④⑤-|
③⑧⑨④ |⑥⑦⑧⑨|
①⑥⑦② |⑩---|
53
口口口口 |--①②|
⑤⑩口口 |③④⑤-|
③⑧⑨④ |⑥⑦⑧⑨|
①⑥⑦② |⑩---|
54
口口 |①---|
口口 |----|
口口
口口

口口
②口③④
⑤口⑥口 |②-③④|
口口口口 |⑤-⑥-|
55
④口口④ |①-②-|
口③⑤口 |③-④-|
口②⑥口 |⑤-⑥-|
①口口①

口口口口
口口口口
⑦口口⑦
口⑦⑦口 |⑦-|




口口 |⑧-|
56
口口口口 |----|
口口口口 |----|
口口口口 |----|
口口口口 |----|
57
口 |----|
口口 |----|
口口口口 |----|
口口口口 |--①-|

不確定度: 0

最終更新:2015年11月06日 23:53