妖隠し -あやかしかくし-
DJ TOTTO feat.3L

EXTREME

Level: 9
BPM: 85
Notes: 899

實際BPM: 170
1
口口口口 |----|
口口口口 |----|
口口口口 |----|
口口口口
2
口口口口 |----|
口口口口 |----|
口口口口 |----|
口口口口
3
口②口口 |①---|
口口③口 |②---|
口④口口 |③-④-|
口①口口
4
口口口口 |①---|
口口口口 |----|
口口①口 |----|
口口口口
5
口口③口 |①-②-|
口⑥①口 |③-④-|
口④口口 |⑤-⑥-|
口②⑤口
6
④④口口 |①-②-|
口口③③ |③-④-|
⑥⑥①① |⑤-⑥-|
②②⑤⑤
7
口⑤③① |①-②-|
口口口口 |③-④-|
口⑥④② |⑤-⑥-|
口口口口
8
①口口口 |①-②③|
⑦④③口 |④-⑤-|
⑥口口② |⑥-⑦-|
口⑤口口
9
口⑤③① |①-②-|
口口口口 |③-④-|
口⑥④② |⑤-⑥-|
口口口口
10
①口口口 |①②③④|
②⑥口⑦ |--⑤-|
③口口口 |⑥-⑦-|
④口⑤口
11
口⑤③① |①-②-|
口口口口 |③-④-|
口⑥④② |⑤-⑥-|
口口口口
12
①口口口 |①-②③|
⑦④③口 |④-⑤-|
⑥口口② |⑥-⑦-|
口⑤口口
13
口①③⑤ |①-②-|
口口口口 |③-④-|
口②④⑥ |⑤-⑥-|
口口口口
14
①口口口 |①-②-|
④②③④ |③-④-|
口口口口 |⑤-⑥-|
口⑤⑥①
15
①③⑤口 |①-②-|
口口口口 |③-④-|
②④⑥① |⑤-⑥-|
口口口口
16
口口口① |①-②③|
口③④⑦ |④-⑤-|
②口口⑥ |⑥-⑦-|
口口⑤口
17
①③⑤口 |①-②-|
口口口口 |③-④-|
②④⑥口 |⑤-⑥-|
口口口口
18
口口口① |①②③④|
⑦口⑥② |--⑤-|
口口口③ |⑥-⑦-|
口⑤口④
19
①③⑤口 |①-②-|
口口口口 |③-④-|
②④⑥口 |⑤-⑥-|
口口口口
20
口⑤口① |①-②③|
口③④⑥ |④-⑤-|
②⑦口口 |⑥-⑦-|
口口口口
21
④⑥⑥④ |①-②-|
⑤口口⑤ |③-④-|
③口口③ |⑤-⑥-|
②①①②
22
⑫口口⑪ |①②③④|
⑩⑥⑤⑨ |⑤⑥⑦⑧|
⑧④③⑦ |⑨⑩⑪⑫|
口②①口
23
口④口口 |①---|
口口③口 |--②-|
口②口口 |③-④-|
口口①口
24
口口③口 |①---|
口口口口 |②---|
口口②口 |③---|
口口①口
25
口口口口 |①---|
口①①口 |②---|
口②③口 |③---|
口口口口
26
口口④口 |①---|
口③⑤② |②-③-|
口口口口 |④-⑤-|
口①①口
27
口口口② |①---|
③④口口 |--②-|
口口口口 |③-④-|
口①①口
28
口口①口 |①---|
口口口口 |②---|
口②口口 |③---|
口口③口
29
④口②③ |①---|
口①①口 |②③④-|
⑥口⑤口 |⑤-⑥-|
口口口口
30
口口口口 |①---|
口口口口 |----|
口口口口 |----|
口①口口
31
口口④口 |①---|
口②口口 |--②-|
口口③口 |③-④-|
口①①口
32
③口口③ |①---|
口口口口 |②---|
①口口① |③---|
口②②口
33
口口③⑤ |①---|
口①①口 |②-③-|
口②口口 |④-⑤-|
口口④口
34
口口③口 |①---|
口④口口 |②-③-|
②⑤口口 |④-⑤-|
口口口①
35
口口口口 |①---|
口④口口 |--②-|
口口③口 |③-④-|
口②①口
36
口③③口 |①---|
②口口② |②---|
①口口① |③---|
口口口口
37
②③口④ |①---|
口口口口 |--②-|
①口口① |③-④-|
口①①口
38
口口口口 |①---|
③①①③ |②---|
口②②口 |③---|
口口口口
39
口口③口 |①-②-|
⑥口⑤口 |③-④-|
②口口① |⑤-⑥-|
口④①口
40
口口③⑤ |①-②-|
口口⑤③ |③-④-|
④口口① |⑤-⑥-|
②⑥①口
41
口②口口 |①-②-|
口口口⑤ |③-④-|
④口①口 |⑤-⑥-|
口⑥③①
42
口②口④ |①-②③|
③⑩⑤口 |④⑤⑥⑦|
口⑥①⑧ |⑧⑨⑩-|
⑦口⑨①
43
口④口口 |①-②-|
口口⑤① |③-④-|
②口③口 |⑤-⑥-|
口⑥口①
44
口④口① |①-②-|
②口口⑤ |③-④-|
⑥口③① |⑤-⑥-|
口口口⑤
45
口口口③ |①-②-|
②口①口 |③-④-|
⑥口口口 |⑤-⑥-|
口④①⑤
46
口⑩口⑧ |①②③④|
⑨②⑦口 |⑤⑥⑦⑧|
口⑥①④ |⑨⑩--|
⑤口③口
47
口口③口 |①-②-|
⑥口⑤口 |③-④-|
②口①口 |⑤-⑥-|
口④口①
48
口口③⑤ |①-②-|
口口⑤③ |③-④-|
④口口① |⑤-⑥-|
②⑥①口
49
口②口口 |①-②-|
口口口⑤ |③-④-|
④口①口 |⑤-⑥-|
口⑥③①
50
⑧②口④ |①-②③|
③⑨⑤口 |④⑤⑥⑦|
口⑥⑩① |⑧⑨⑩⑪|
⑦口口⑪
51
口口口口 |①-②-|
⑤口口⑥ |③-④-|
③口口④ |⑤-⑥-|
口①②口
52
口⑤⑥口 |①-②-|
口③④口 |③-④-|
口口口口 |⑤-⑥-|
①①②②
53
口⑤⑥口 |①-②-|
口③④口 |③-④-|
①口口② |⑤-⑥-|
口①②口
54
口口口口 |①-②-|
①⑤⑥② |③-④-|
口口口口 |⑤-⑥-|
口③④口
55
口①②口 |①-②-|
口口⑩⑨ |③④⑤⑥|
⑦⑧口口 |⑦⑧⑨⑩|
③④⑥⑤
56
⑤⑥⑧⑦ |①②③④|
①②口口 |⑤⑥⑦⑧|
口口④③ |⑨⑩⑪⑫|
⑨⑩⑫⑪
57
⑤⑦⑧⑥ |①②③④|
⑦口口⑧ |⑤-⑥-|
①②④③ |⑦-⑧-|
口口口口
58
口⑥⑥口 |①-②-|
口④④口 |③-④-|
②③③② |⑤-⑥-|
①⑤⑤①
59
②口口② |①---|
口③③口 |②---|
口口口口 |③-④-|
①口④①
60
②口口口 |①---|
口③口口 |②---|
口①①口 |③---|
口口口口
61
②口口② |①---|
口③③口 |②---|
口口④口 |③-④-|
①口口①
62
口口①口 |①---|
②口口③ |②-③-|
口④口④ |④-⑤-|
口①口⑤
63
①①①① |①---|
口③③口 |②-③-|
⑤④④⑤ |④-⑤-|
口②②口
64
①①①① |①---|
③④④③ |②-③-|
口⑤⑤口 |④-⑤-|
②②②②
65
①①①① |①---|
口④④口 |②-③-|
③⑤⑤③ |④-⑤-|
②②②②
66
①②口① |①-②-|
④口⑤③ |③-④-|
口口口口 |⑤-⑥-|
口⑥口口
67
②口口② |①---|
口③③口 |②---|
口口口口 |③-④-|
①口④①
68
②口口口 |①---|
口③口口 |②---|
口①①口 |③---|
口口口口
69
②口口② |①---|
口③③口 |②---|
口口④口 |③-④-|
①口口①
70
口口①口 |①---|
②口口③ |②-③-|
口④口④ |④-⑤-|
口①口⑤
71
①①①① |①---|
口③③口 |②-③-|
⑤④④⑤ |④-⑤-|
口②②口
72
①①①① |①---|
③④④③ |②-③-|
口⑤⑤口 |④-⑤-|
②口口②
73
①①①① |①---|
④口口④ |②---|
③口口③ |③-④-|
口②口口
74
①①①① |①---|
口④④口 |②---|
③口口③ |③-④-|
口②②口
75
①①①① |①---|
口口口口 |②③④⑤|
⑨⑧⑦⑥ |⑥⑦⑧⑨|
⑤④③②
76
①口④④ |①-②-|
③⑤②⑥ |③-④-|
口口口⑦ |⑤-⑥⑦|
口口口口
77
口口口口 |①---|
②⑧⑦口 |②-③④|
口⑥⑤口 |⑤⑥⑦⑧|
口④③①
78
口口①④ |①-②-|
⑤口⑥口 |③-④-|
口口口③ |⑤-⑥-|
口口口②
79
口②口⑥ |①---|
口③口⑦ |②③④⑤|
①④①⑧ |⑥⑦⑧⑨|
口⑤口⑨
80
⑤口④口 |①-②-|
③口口⑥ |③-④-|
口口②⑦ |⑤-⑥⑦|
①口口口
81
口口④口 |①---|
口③口⑤ |②-③-|
口口口口 |④-⑤-|
口②口①
82
口⑤口⑤ |①-②-|
③⑥③⑥ |③-④-|
②④②④ |⑤-⑥-|
①口①口
83
①口①口 |①---|
口口口口 |②③④⑤|
⑨⑧⑦⑥ |⑥⑦⑧⑨|
⑤④③②
84
①口④④ |①-②-|
③⑤②⑥ |③-④-|
口口口⑦ |⑤-⑥⑦|
口口口口
85
口口口口 |①---|
口⑧⑦口 |②-③④|
②⑥⑤口 |⑤⑥⑦⑧|
口④③①
86
⑤⑦①④ |①-②③|
③口⑧② |④⑤⑥-|
口口口口 |⑦-⑧-|
口口⑥口
87
口⑥口② |①---|
口⑦口③ |②③④⑤|
①⑧口④ |⑥⑦⑧⑨|
口⑨口⑤
88
口口②口 |①-②-|
③口口⑥ |③-④-|
⑤口①⑦ |⑤-⑥⑦|
口口④口
89
⑥④④⑥ |①-②-|
口③③口 |③-④-|
口②②口 |⑤-⑥-|
口⑤⑤①
90
⑥④④⑥ |①-②-|
③口口③ |③-④-|
②口口② |⑤-⑥-|
①⑤⑤①
91
口口口口 |①---|
②③④⑤ |----|
口口口口 |②③④⑤|
①口口①
92
①②口口 |①---|
口口口口 |②---|
①②口口 |③④⑤⑥|
⑥⑤④③
93
②口口① |①---|
口③③口 |②---|
②口④① |③-④-|
口口口口
94
口口①口 |①---|
②口口③ |②-③-|
口④口④ |④-⑤-|
口①口⑤
95
①①①① |①---|
②④口③ |②-③-|
口⑤⑤④ |④-⑤-|
口③②口
96
①①①① |①---|
③口⑤口 |②-③-|
②⑤口④ |④-⑤-|
口④②③
97
①①①① |①---|
③口口② |②-③-|
口⑤④口 |④-⑤-|
②④⑤③
98
①②⑤① |①-②-|
④口⑤③ |③-④-|
④⑥口口 |⑤-⑥-|
口⑥口口
99
②口口② |①---|
口③③口 |②---|
口口口口 |③-④-|
①口④①
100
②口口口 |①---|
口③口口 |②---|
②①①口 |③---|
口口口口
101
②口口② |①---|
口③③口 |②---|
口口④口 |③-④-|
①口口①
102
口口①口 |①---|
②口口③ |②-③-|
口④口④ |④-⑤-|
口①口⑤
103
①①①① |①---|
②④口③ |②-③-|
口口②⑤ |④-⑤-|
⑤③④口
104
①①①① |①---|
②④⑤③ |②-③-|
⑤③口口 |④-⑤-|
口口④②
105
①①①① |①---|
③口口③ |②---|
口口口口 |③-④-|
④②口④
106
①口口① |①---|
④①①④ |②---|
口③③口 |③-④-|
口②②口
107
①①①① |①-②-|
口⑤③口 |③-④-|
③⑥⑤② |⑤-⑥-|
口口④口
108
④①⑦② |①-②③|
口⑥口③ |④-⑤-|
口口⑥④ |⑥-⑦-|
①口⑤口
109
③口口③ |①-②-|
口⑤①⑤ |③-④-|
口口口④ |⑤-⑥-|
①口⑥②
110
④①口⑥ |①②③-|
口⑥②口 |④-⑤-|
①⑤③口 |⑥-⑦-|
口口⑦④
111
③口①口 |①-②-|
口⑤口③ |③-④-|
口口②⑤ |⑤-⑥-|
①口⑥④
112
④口②① |①-②③|
口⑥③⑦ |④-⑤-|
口口⑥口 |⑥-⑦-|
①④口⑤
113
③⑤②⑥ |①-②-|
口口③口 |③-④-|
口口口④ |⑤-⑥-|
①口①⑤
114
⑫口口⑪ |①②③④|
⑩⑥⑤⑨ |⑤⑥⑦⑧|
⑧④③⑦ |⑨⑩⑪⑫|
口②①口
115
口②口口 |①---|
口口③口 |②---|
口口口口 |③-④-|
口④①口
116
口口口口 |①---|
口口口口 |----|
口口①口 |----|
口口口口

不確定度: 0

最終更新:2016年04月18日 01:16