Thank You Merry Christmas
VENUS

BASIC

Level: 3
BPM: 220
Notes: 269

1
口口口口 |----|
口口口口 |----|
口口口口 |----|
口口口口 |----|
2
口口口口 |①---|
口①口口 |----|
口口口口 |----|
口口口口 |----|
3
口口口口 |①---|
口口①口 |----|
口口口口 |----|
口口口口 |----|
4
口口口口 |①---|
口口口口 |②---|
①②③④ |③---|
口口口口 |④---|
5
口口口口 |----|
口口口口 |----|
口口口口 |----|
口口口口 |----|
6
口口口口 |①---|
口①口口 |----|
口口口口 |----|
口口口口 |----|
7
口口口口 |----|
口口口口 |----|
口口口口 |----|
口口口口 |----|
8
口口口口 |①---|
口口①口 |----|
口口口口 |----|
口口口口 |----|
9
口口口口 |①---|
口口口口 |----|
口①口口 |----|
口口口口 |----|
10
口口口口 |----|
口口口口 |----|
口口口口 |----|
口口口口 |----|
11
口口口口 |----|
口口口口 |----|
口口口口 |----|
口口口口 |----|
12
口口口口 |----|
口口口口 |----|
口口口口 |----|
口口口口 |----|
13
口口口口 |----|
口口口口 |----|
口口口口 |----|
口口口口 |----|
14
口口口口 |①---|
口口口口 |----|
口①①口 |----|
口口口口 |----|
15
口口口口 |①---|
口①①口 |----|
口②口口 |----|
口口口口 |②---|
16
口口口口 |①---|
口口口口 |----|
口口①口 |----|
口口口口 |----|
17
口口口口 |①---|
①③②① |②---|
口口口口 |③---|
口口口口 |----|
18
口口口① |①---|
口口口② |----|
口口口口 |②---|
口口口口 |----|
19
口口口口 |①---|
口口口口 |----|
口口口① |②---|
口口口② |----|
20
口口口口 |①---|
口口口口 |----|
口①②口 |②---|
口口口口 |----|
21
口口口口 |①---|
①口②口 |②---|
③口④口 |③---|
口口口口 |④---|
22
口口口口 |①---|
口口口口 |②---|
口口口口 |----|
①口②口 |----|
23
口口口口 |①---|
口②口① |②---|
口④口③ |③---|
口口口口 |④---|
24
口口口口 |①---|
口口口口 |②---|
口口口口 |----|
口②口① |----|
25
口口口口 |①---|
①口②口 |②---|
③口④口 |③---|
口口口口 |④---|
26
口口口口 |①---|
口口口口 |②---|
口口口口 |----|
①口②口 |----|
27
口口口口 |①---|
口②口① |②---|
口④口③ |③---|
口口口口 |④---|
28
口口口口 |①---|
口口口口 |②---|
口口口口 |----|
口②口① |----|
29
口④口口 |①---|
口口③口 |②---|
口②口口 |③---|
口口①口 |④---|
30
口口①口 |①---|
口②口口 |②---|
口口口口 |----|
口口口口 |----|
31
口口口口 |----|
口口口口 |----|
口口口口 |----|
口口口口 |----|
32
口口口口 |①---|
口①①口 |----|
口②②口 |②---|
口口口口 |----|
33
口口口口 |①---|
口口口口 |----|
口口口口 |②---|
②①①② |----|
34
口口口口 |①---|
口②①口 |----|
口②①口 |②---|
口口口口 |----|
35
口口口口 |①---|
②口口① |----|
②口口① |②---|
口口口口 |----|
36
口①①口 |①---|
口口口口 |----|
口口口口 |----|
口口口口 |----|
37
口口口口 |----|
口口口口 |----|
口口口口 |----|
口口口口 |----|
38
口口口口 |①---|
口①口口 |----|
口口口口 |----|
口口口口 |----|
39
口口口口 |①---|
口口①口 |----|
口口口口 |----|
口口口口 |----|
40
口口口口 |①---|
口口口口 |②---|
①②③④ |③---|
口口口口 |④---|
41
口口口口 |----|
口口口口 |----|
口口口口 |----|
口口口口 |----|
42
口口口口 |①---|
口口①口 |----|
口口口口 |----|
口口口口 |----|
43
口口口口 |①---|
口口口口 |②---|
④③②① |③---|
口口口口 |④---|
44
口口口口 |①---|
①口口口 |----|
口口口口 |----|
口口口口 |----|
45
口口口口 |①---|
口口①口 |----|
口口口口 |----|
口口口口 |----|
46
口口口口 |①---|
口①口口 |----|
口口口口 |----|
口口口口 |----|
47
口口口口 |①---|
口口口口 |----|
口口①口 |----|
口口口口 |----|
48
口口口口 |①---|
口口口口 |----|
口①口口 |----|
口口口口 |----|
49
口口口口 |①---|
口口口口 |----|
口口口口 |----|
口①①口 |----|
50
口口口口 |①---|
口口口口 |②---|
①②③④ |③---|
口口口口 |④---|
51
口口口口 |①---|
口②口① |----|
口口口口 |②---|
口口口口 |----|
52
口口口口 |①---|
口口口口 |②---|
④③②① |③---|
口口口口 |④---|
53
口口口口 |①---|
①②②口 |----|
口口口口 |②---|
口口口口 |----|
54
口①①口 |①---|
口口口口 |----|
口口口口 |----|
口口口口 |----|
55
口口口口 |①---|
口①①口 |----|
口口口口 |----|
口口口口 |----|
56
口口口口 |①---|
口口口口 |----|
口①①口 |----|
口口口口 |----|
57
口口口口 |①---|
口口口口 |----|
口口口口 |----|
口①①口 |----|
58
口口口口 |①---|
①口口口 |----|
口②口口 |②---|
口口口口 |----|
59
口口口口 |①---|
口口口口 |----|
口口口口 |----|
口口①口 |----|
60
口口口口 |①---|
口口口① |----|
口口②口 |②---|
口口口口 |----|
61
口口口口 |①---|
①口②口 |②---|
③口④口 |③---|
口口口口 |④---|
62
口口口口 |①---|
口口口口 |②---|
口口口口 |----|
①口②口 |----|
63
口口口口 |①---|
口②口① |②---|
口④口③ |③---|
口口口口 |④---|
64
口口口口 |①---|
口口口口 |②---|
口口口口 |----|
口②口① |----|
65
口口口口 |①---|
①口②口 |②---|
③口④口 |③---|
口口口口 |④---|
66
口口口口 |①---|
口口口口 |②---|
口口口口 |----|
①口②口 |----|
67
口口口口 |①---|
口②口① |②---|
口④口③ |③---|
口口口口 |④---|
68
口口口口 |①---|
口口口口 |②---|
口口口口 |----|
口②口① |----|
69
口④口口 |①---|
口口③口 |②---|
口②口口 |③---|
口口①口 |④---|
70
口口①口 |①---|
口②口口 |②---|
口口口口 |----|
口口口口 |----|
71
口口口口 |----|
口口口口 |----|
口口口口 |----|
口口口口 |----|
72
口口口口 |①---|
口①①口 |----|
口②②口 |②---|
口口口口 |----|
73
口口口口 |①---|
口口口口 |----|
口口口口 |②---|
②①①② |----|
74
口口口口 |①---|
口②①口 |----|
口②①口 |②---|
口口口口 |----|
75
口口口口 |①---|
②口口① |----|
②口口① |②---|
口口口口 |----|
76
口①①口 |①---|
口口口口 |----|
口口口口 |----|
口口口口 |----|
77
口口口口 |①---|
口①①口 |----|
口②②口 |②---|
口口口口 |----|
78
口口口口 |①---|
口口口口 |----|
口口口口 |----|
口①①口 |----|
79
口口口口 |①---|
口口口口 |----|
口口口口 |----|
①口口① |----|
80
口口口口 |①---|
口口口② |----|
口口口① |②---|
口口口口 |----|
81
口口②① |①---|
口口口口 |----|
口口口口 |②---|
口口口口 |----|
82
口口口口 |①---|
②口口口 |----|
①口口口 |②---|
口口口口 |----|
83
①②口口 |①---|
口口口口 |----|
口口口口 |②---|
口口口口 |----|
84
口口口口 |①---|
口②②口 |----|
口①①口 |②---|
口口口口 |----|
85
口口口口 |①---|
②口口② |----|
①口口① |②---|
口口口口 |----|
86
口口口口 |①---|
口①①口 |----|
口口口口 |----|
口口口口 |----|
87
口①①口 |①---|
口口口口 |----|
口口口口 |----|
口口口口 |----|
88
口口口口 |①---|
口口口① |----|
口口口② |②---|
口口口口 |----|
89
口口口口 |①---|
口口口口 |----|
口口口口 |②---|
口口②① |----|
90
口口口口 |①---|
①口口口 |----|
②口口口 |②---|
口口口口 |----|
91
口口口口 |①---|
口口口口 |----|
口口口口 |②---|
①②口口 |----|
92
口口口口 |①---|
口①①口 |----|
口②②口 |②---|
口口口口 |----|
93
口口口口 |①---|
口口口口 |----|
口口口口 |②---|
②①①② |----|
94
口口口口 |①---|
口口口口 |----|
①口口① |----|
口口口口 |----|
95
口口口口 |①---|
口口口口 |----|
口口口口 |----|
口①①口 |----|
96
口口口口 |①---|
①口②口 |②---|
③口④口 |③---|
口口口口 |④---|
97
①①口口 |①---|
口口口口 |----|
口口口口 |----|
口口口口 |----|
98
口口口口 |①---|
口②口① |②---|
口④口③ |③---|
口口口口 |④---|
99
口口①① |①---|
口口口口 |----|
口口口口 |----|
口口口口 |----|
100
口口口口 |①---|
①口②口 |②---|
③口④口 |③---|
口口口口 |④---|
101
①①口口 |①---|
口口口口 |----|
口口口口 |----|
口口口口 |----|
102
口口口口 |①---|
口②口① |②---|
口④口③ |③---|
口口口口 |④---|
103
口口①① |①---|
口口口口 |----|
口口口口 |----|
口口口口 |----|
104
口口口口 |①---|
①口②口 |②---|
③口④口 |③---|
口口口口 |④---|
105
①①口口 |①---|
口口口口 |----|
口口口口 |----|
口口口口 |----|
106
口口口口 |----|
口口口口 |----|
口口口口 |----|
口口口口 |----|
107
口口口口 |①---|
口①①口 |----|
口②②口 |②---|
口口口口 |----|
108
口口口口 |①---|
口口口口 |----|
口口口口 |②---|
②①①② |----|
109
口口口口 |①---|
口②①口 |----|
口②①口 |②---|
口口口口 |----|
110
口口口口 |①---|
②口口① |----|
②口口① |②---|
口口口口 |----|
111
口①①口 |①---|
口口口口 |----|
口口口口 |----|
口口口口 |----|
112
口口口口 |①---|
口①①口 |----|
口②②口 |②---|
口口口口 |----|
113
口口口口 |①---|
口口口口 |----|
口口口口 |----|
口①①口 |----|
114
口口①① |①---|
口口口口 |----|
口口口口 |----|
口口口口 |----|

不確定度: 0

最終更新:2016年04月12日 02:55