キルト
Des-Sana+wpt9

ADVANCED

Level: 7
BPM: 178
Notes: 516

1
口口口口 |----|
口口口口 |----|
口口口口 |----|
口口口口 |----|
2
口口口口 |----|
口口口口 |----|
口口口口 |①---|
①口口① |----|
3
口口口口 |①-②-|
口口④④ |③-④-|
①②⑥⑤ |--⑤-|
口③⑦口 |⑥-⑦-|
4
口③口口 |①-②-|
①②④④ |③-④-|
口口口口 |----|
口口口口 |----|
5
口口口口 |①-②-|
口口④④ |③-④-|
①②⑥⑤ |--⑤-|
口③⑦口 |⑥-⑦-|
6
口③口口 |①-②-|
①②④④ |③-④-|
口口口口 |----|
口口口口 |----|
7
口口口口 |①-②-|
④④口口 |③-④-|
⑤⑥②① |--⑤-|
口⑦③口 |⑥-⑦-|
8
口口①口 |①-②-|
④④②③ |③-④-|
口口口口 |----|
口口口口 |----|
9
口⑤口① |①-②-|
⑥⑥②② |--③-|
口口③口 |④---|
口④④口 |⑤-⑥-|
10
口口口口 |--①-|
⑥⑥③③ |②-③-|
口②⑤口 |④-⑤-|
④口口① |⑥---|
11
口口口口 |①-②-|
口口④④ |③-④-|
①②⑥⑤ |--⑤-|
口③⑦口 |⑥-⑦-|
12
口③口口 |①-②-|
①②④④ |③-④-|
口口⑤⑤ |----|
口口口口 |⑤---|
13
口口口口 |①-②-|
口口④④ |③-④-|
①②⑥⑤ |--⑤-|
口③⑦口 |⑥-⑦-|
14
口③口口 |①-②-|
①②④④ |③-④-|
口口口口 |----|
⑤⑤口口 |⑤---|
15
口口口口 |①-②-|
④④口口 |③-④-|
⑤⑥②① |--⑤-|
口⑦③口 |⑥-⑦-|
16
口口①口 |①-②-|
④④②③ |③-④-|
⑥口口⑥ |----|
⑤口口⑤ |⑤-⑥-|
17
口⑤口① |①-②-|
⑥⑥②② |--③-|
口口③口 |④---|
口④④口 |⑤-⑥-|
18
口口口口 |--①-|
⑥⑥③③ |②-③-|
②口口⑤ |④-⑤-|
④口口① |⑥---|
19
口口②① |----|
口口③④ |①-②-|
口口⑥⑤ |③-④-|
口口口口 |⑤-⑥-|
20
口②口口 |--①-|
口①口口 |②---|
口口口口 |----|
口口口口 |----|
21
口口口口 |----|
⑤⑥口口 |①-②-|
④③口口 |③-④-|
①②口口 |⑤-⑥-|
22
口口口口 |--①-|
口口③口 |②---|
口口①口 |③-④-|
④口②口 |----|
23
口口③③ |----|
口口②② |①---|
口口口口 |②-③-|
④口①① |--④-|
24
口②口口 |--①-|
口③口口 |--②-|
①口口口 |③---|
口④口口 |④---|
25
口口③③ |①---|
口口②② |②-③-|
口口口口 |----|
④口①① |④---|
26
口②口口 |①---|
①③口口 |--②-|
口口口口 |③---|
口口口口 |----|
27
口口②① |----|
口口③④ |①-②-|
口口⑥⑤ |③-④-|
口口口口 |⑤-⑥-|
28
口②口口 |--①-|
口①口口 |②---|
口口口口 |----|
口口口口 |----|
29
口口口口 |----|
⑤⑥口口 |①-②-|
④③口口 |③-④-|
①②口口 |⑤-⑥-|
30
口口口口 |--①-|
口口③口 |②---|
口口①口 |③-④-|
④口②口 |----|
31
口口③③ |----|
口口②② |①---|
口口口口 |②-③-|
④口①① |--④-|
32
口③口口 |--①-|
②④口口 |--②-|
①⑤口口 |③-④-|
口⑥口口 |⑤-⑥-|
33
口口③③ |①---|
口口②② |--②-|
口口口口 |③---|
④口①① |--④-|
34
口②口口 |--①-|
①③口口 |②---|
口口口口 |③---|
口④口口 |④---|
35
口口口口 |----|
口口①① |--①-|
口口口口
口口口口
36
口口口口 |----|
口口口口 |①-②-|
②⑤⑤④ |③-④-|
①②④③ |--⑤-|
37
①②口口 |----|
②③口口 |----|
口口口口 |--①-|
口口口口 |②-③-|
38
口口口① |----|
口口口口 |----|
口口口口 |----|
口口口口 |①---|
39
③④①口 |①---|
④⑤②① |②-③-|
口口口口 |④-⑤-|
口口口口 |----|
40
口口口口 |----|
口口口口 |①-②-|
②⑤⑤④ |③-④-|
①②④③ |--⑤-|
41
①②口口 |----|
②③口口 |----|
口口口口 |--①-|
口口口口 |②-③-|
42
④口②① |----|
口口③② |①---|
口口口口 |②-③-|
口口口口 |--④-|
43
口①口口 |----|
①②口口 |①---|
口口③口 |②---|
口口口口 |③---|
44
口⑥口⑤ |①-②-|
④口口② |--③-|
口口口⑥ |④---|
③②④① |⑤-⑥-|
45
①口②口 |--①-|
口④④口 |②---|
②③③口 |③---|
口口口口 |④---|
46
口⑥口⑤ |①-②-|
④口口② |--③-|
口口口⑥ |④---|
③②④① |⑤-⑥-|
47
①口②口 |--①-|
口口口口 |②---|
②④④口 |③---|
口③③口 |④---|
48
口口口口 |①---|
口①①口 |----|
口口口口
口口口口

口口口口
口口③口
口②口口 |----|
口口口口 |②-③-|
49
口口口口 |①---|
④①口口 |②---|
口口口口 |③---|
③口④② |④---|
50
口口口口 |①---|
口口口口 |----|
①口口口 |----|
口①口口 |----|
51
口口口④ |①---|
口口④③ |②---|
口④③② |③---|
④③②① |④---|
52
口口①口 |①---|
口①口口 |----|
①口口口 |----|
口口口口 |----|
53
①②口口 |①---|
②口口口 |----|
口口口口 |②---|
口口口口 |----|
54
口口口口 |①---|
口口口口 |----|
口口口② |②---|
口口②① |----|
55
口口②③ |①---|
口②③① |--②-|
②③①口 |----|
③①口口 |③---|
56
口①口口 |①---|
①口口口 |----|
口口口口 |----|
口口口口 |----|
57
①口口口 |----|
口②口口 |--①-|
口口口口 |--②-|
口口口③ |--③-|
58
口口口口 |①---|
口口口口 |----|
口口①口 |②---|
②口口口 |----|
59
④③③③ |①-②-|
口口②② |③-④-|
口口口① |--⑤-|
⑤口口⑤ |----|
60
口口口口 |①-②-|
①⑥⑥③ |③-④-|
⑤②④⑤ |--⑤-|
口③①口 |--⑥-|
61
①②②① |----|
口口口口 |--①-|
口口口口 |②-③-|
③口口③ |----|
62
口口口口 |①-②-|
①⑥⑥③ |③-④-|
⑤②④⑤ |--⑤-|
口③①口 |--⑥-|
63
①②②① |----|
口口口口 |①---|
口口口口 |②-③-|
③口口③ |----|
64
③口口④ |①---|
口②⑤口 |②-③-|
口⑥口① |--④-|
口口①口 |⑤-⑥-|
65
口④④口 |①---|
①口口① |②---|
②口口② |③---|
③口口③ |④---|
66
①⑤⑥② |①-②-|
②⑥⑤① |--③-|
③口口④ |④---|
④口口③ |⑤-⑥-|
67
③口口③ |①---|
②口口② |--②-|
口口口口 |③---|
口①①口 |----|
68
口口④口 |①---|
口③口口 |②-③-|
②口①⑤ |--④-|
口口⑤口 |--⑤-|
69
口口口③ |----|
口口口② |①---|
口口口口 |②---|
③②口① |③---|
70
口口④口 |①---|
口③口口 |②-③-|
②口①⑤ |--④-|
口口⑤口 |--⑤-|
71
口口口③ |----|
口口口② |①---|
口口口口 |②---|
③②口① |③---|
72
口口口口 |①---|
口①②③ |--②-|
口②①口 |----|
口③口口 |③---|
73
口口③口 |①---|
口①②口 |--②-|
③②①口 |----|
口口口口 |③---|
74
口③④口 |①---|
口①②口 |--②-|
口②①口 |----|
口④③口 |③-④-|
75
⑤口口① |①---|
口②③④ |②---|
④③②口 |③---|
①口口⑤ |④-⑤-|
76
口口口口 |----|
口口口口 |----|
口口口口 |----|
口口口口 |----|
77
口口口口 |----|
口口口口 |----|
口口口口 |----|
口口口口 |----|
78
①②口口 |①---|
④③口口 |②---|
口口口口 |③---|
口口口口 |④---|
79
口口口口 |①---|
口口口口 |----|
口口②① |②---|
③③①② |③---|
80
口口口口 |①---|
口口口口 |----|
①①口口 |----|
口口口口 |----|
81
口口口口 |①---|
口口口口 |②---|
④③①② |③---|
③④②① |④---|
82
①②口口 |①---|
④③口口 |②---|
口口口口 |③---|
口口口口 |④---|
83
口口口口 |①---|
口口口④ |②---|
⑥⑥③① |③-④-|
⑤⑤①② |⑤-⑥-|
84
⑥口口口 |①---|
口⑤口④ |②---|
口口③① |③-④-|
口口①② |⑤-⑥-|
85
口②②① |①-②-|
口⑤⑤口 |--③-|
④③③④ |--④-|
口口口口 |--⑤-|
86
口⑥口⑤ |①-②-|
④口口② |--③-|
口口口⑥ |④---|
③②④① |⑤-⑥-|
87
①口②口 |--①-|
口④④口 |②---|
②③③口 |③---|
口口口口 |④---|


不確定度: 0

タグ:

+ タグ編集
  • タグ:

このサイトはreCAPTCHAによって保護されており、Googleの プライバシーポリシー利用規約 が適用されます。

最終更新:2013年03月29日 20:32