Thank You Merry Christmas
VENUS

ADVANCED

Level: 6
BPM: 220
Notes: 439

1
口口口口 |----|
口口口口 |----|
口口口口 |----|
口口口口 |----|
2
口②①口 |①---|
口口口口 |----|
口口口口 |②---|
口口口口 |----|
3
口口口口 |①---|
口口①口 |----|
②③口口 |②---|
口口口口 |③---|
4
口口口口 |①---|
口口④③ |②---|
口口①② |③---|
口口口口 |④---|
5
口口口口 |----|
①②口口 |----|
口口口口 |①---|
口口口口 |②---|
6
口口口口 |①---|
口口①口 |----|
口口口口 |----|
口口口口 |----|
7
口口口口 |----|
口口口口 |----|
口口口口 |----|
口口口口 |----|
8
口口口口 |①---|
口口口口 |----|
口①口口 |----|
口口口口 |----|
9
口口口口 |①---|
②③口口 |----|
口口①口 |②---|
口口口口 |③---|
10
口口口口 |----|
口口口口 |----|
口口口口 |----|
口口口口 |----|
11
口口口口 |----|
口口口口 |----|
口口口口 |----|
口口口口 |----|
12
口口口口 |----|
口口口口 |----|
口口口口 |----|
口口口口 |----|
13
口口口口 |----|
口口口口 |----|
口口口口 |----|
口口口口 |----|
14
口口口口 |①---|
①②③口 |②---|
口口口④ |③---|
口口口口 |----④-|
15
口口口口 |----①-|
口口口口 |----②-|
口②①口 |③---|
口口③口 |----|
16
口口口口 |①---|
①②③口 |②---|
口口口④ |③---|
口口口口 |----④-|
17
口口口口 |----①-|
口④④口 |----②-|
口②①口 |③---|
口口③口 |④---|
18
②口口① |①---|
④口口③ |②---|
口口口口 |③---|
口口口口 |④---|
19
口②①口 |①---|
口④③口 |②---|
口口口口 |③---|
口口口口 |④---|
20
口口口口 |①---|
口口口口 |②---|
①②③④ |③---|
口口口口 |④---|
21
①口口② |①---|
③①②④ |②---|
口③④口 |③---|
口口口口 |④---|
22
口①①口 |①---|
口口口口 |②---|
口口口口 |----|
口②②口 |----|
23
①口口② |①---|
③①②④ |②---|
口③④口 |③---|
口口口口 |④---|
24
口①①口 |①---|
口口口口 |②---|
口口口口 |----|
口②②口 |----|
25
①口口② |①---|
③①②④ |②---|
口③④口 |③---|
口口口口 |④---|
26
口①①口 |①---|
口口口口 |②---|
口口口口 |----|
口②②口 |----|
27
①口口② |①---|
③①②④ |②---|
口③④口 |③---|
口口口口 |④---|
28
口①①口 |①---|
口口口口 |②---|
口口口口 |----|
口②②口 |----|
29
口口口口 |①---|
口④③口 |②---|
④②①③ |③---|
②口口① |④---|
30
口①①口 |①---|
口口口口 |②---|
口口口口 |----|
口②②口 |----|
31
①口口① |----|
②口口② |①---|
③口口③ |②---|
口口口口 |③---|
32
口①①口 |①---|
口③②口 |②---③-|
口口④口 |----④-|
口⑤口口 |⑤---|
33
口口口口 |----|
口口口③ |①---|
口口口② |②---|
口口口① |③---|
34
口口口口 |①---|
口①②口 |----|
口②①口 |②---|
口口口口 |----|
35
口①②口 |①---|
口③③口 |----|
口③③口 |②---|
口②①口 |----③-|
36
口口口口 |----|
口口口口 |----|
口口口口 |----|
口口口口 |----|
37
口口口口 |----|
口口口口 |----|
口口口口 |----|
口口口口 |----|
38
口口口口 |----|
①①口口 |----|
口口口口 |①---|
口口口口 |----|
39
口口口口 |①---|
口口①① |----|
口②②口 |②---|
口口口口 |----|
40
口口口口 |①---|
口②口④ |②---|
①口③口 |③---|
口口口口 |④---|
41
口口口口 |----|
口口口口 |----|
口口口口 |----|
口口口口 |----|
42
口口口口 |----|
①口②口 |----|
口口口口 |①---|
口口口口 |②---|
43
口口口口 |①---|
口③口④ |②---|
①口②口 |③---|
口口口口 |④---|
44
口口口口 |①---|
口口口口 |----|
②口口② |②---|
口①①口 |----|
45
③③②② |①---|
口①①口 |----|
口口口口 |②---|
口口口口 |③---|
46
口口口口 |①---|
口①①口 |----|
口口口口 |----|
口口口口 |----|
47
口口口口 |①---|
口口口口 |----|
口①①口 |----|
口口口口 |----|
48
②口口① |①---|
口③③口 |----|
口③③口 |②---|
①口口② |----③-|
49
口口口口 |----|
口口口口 |----|
口口口口 |----|
口口口口 |----|
50
口口口口 |①---|
④口口② |②---|
③口口① |③---|
口口口口 |④---|
51
口③③口 |①---|
口口口口 |----|
口②②口 |②---|
口①①口 |③---|
52
口口口口 |----|
③口②① |①---|
口口口口 |②---|
口口口口 |③---|
53
口口口口 |①---|
口①口口 |----|
口③口口 |②---|
口口②口 |③---|
54
口口口口 |①---|
口口①口 |----|
口口口口 |----|
口口口口 |----|
55
口口口② |①---|
口①口口 |----|
口口口口 |----|
口口口口 |②---|
56
口口①口 |①---|
口口口口 |----|
口②③口 |②---③-|
④口口④ |----④-|
57
口口口口 |----|
口口口口 |----|
口口①口 |----|
口口口口 |----①-|
58
口④③② |①---|
口①口口 |②---|
口口口口 |③---|
口口口口 |④---|
59
①口口口 |①---|
口③③口 |----|
口②②口 |②---|
口口口口 |③---|
60
口口口口 |----|
口口口口 |①---|
口②③口 |②---|
口口①口 |③---|
61
①口口② |①---|
③①②④ |②---|
口③④口 |③---|
口口口口 |④---|
62
口①①口 |①---|
口口口口 |②---|
口口口口 |----|
口②②口 |----|
63
①口口② |①---|
③①②④ |②---|
口③④口 |③---|
口口口口 |④---|
64
口①①口 |①---|
口口口口 |②---|
口口口口 |----|
口②②口 |----|
65
①口口② |①---|
③①②④ |②---|
口③④口 |③---|
口口口口 |④---|
66
口①①口 |①---|
口口口口 |②---|
口口口口 |----|
口②②口 |----|
67
①口口② |①---|
③①②④ |②---|
口③④口 |③---|
口口口口 |④---|
68
口①①口 |①---|
口口口口 |②---|
口口口口 |----|
口②②口 |----|
69
口口口口 |①---|
口④③口 |②---|
④②①③ |③---|
②口口① |④---|
70
口①①口 |①---|
口口口口 |②---|
口口口口 |----|
口②②口 |----|
71
①口口① |----|
②口口② |①---|
③口口③ |②---|
口口口口 |③---|
72
口①①口 |①---|
口③②口 |②---③-|
口口④口 |----④-|
口⑤口口 |⑤---|
73
口口口口 |----|
口口口③ |①---|
口口口② |②---|
口口口① |③---|
74
口口口口 |①---|
口①②口 |----|
口②①口 |②---|
口口口口 |----|
75
口①②口 |①---|
口③③口 |----|
口③③口 |②---|
口②①口 |----③-|
76
口口口口 |----|
口口口口 |----|
口口口口 |①---|
①①①① |----|
77
口②①口 |①---|
口①②口 |----|
口口口口 |②---|
口口口口 |----|
78
①口口① |①---|
口口口口 |----|
口口口口 |----|
口口口口 |----|
79
口口口口 |①---|
①口口① |----|
口口口口 |----|
口口口口 |----|
80
口口口① |①---|
口口①② |----|
口口②口 |②---|
口口口口 |----|
81
口口口口 |①---|
口口口口 |----|
口口口① |②---|
②口①② |----|
82
①口口口 |①---|
②①口口 |----|
口②口口 |②---|
口口口口 |----|
83
口口口口 |①---|
口口口口 |----|
①口口口 |②---|
②①口② |----|
84
口②①口 |①---|
②口口① |----|
口口口口 |②---|
口口口口 |----|
85
口口口口 |①---|
口②①口 |----|
②口口① |②---|
口口口口 |----|
86
口口口口 |①---|
口口口口 |----|
口口口口 |----|
口①①口 |----|
87
口①①口 |①---|
口口口口 |----|
口口口口 |----|
口口口口 |----|
88
口口口① |①---|
口口①② |----|
口口②口 |②---|
口口口口 |----|
89
口口口口 |①---|
口口口口 |----|
口口口① |②---|
②口①② |----|
90
①口口口 |①---|
②①口口 |----|
口②口口 |②---|
口口口口 |----|
91
②口口② |①---|
口口口口 |----|
①口口口 |②---|
口①口口 |----|
92
口口口口 |①---|
口①①口 |----|
口②②口 |②---|
口口口口 |----|
93
口口口口 |①---|
口口口口 |----|
②口口② |②---|
口①①口 |----|
94
口①①口 |①---|
口口口口 |----|
口口口口 |----|
口口口口 |----|
95
口口口口 |①---|
口①①口 |----|
口口口口 |----|
口口口口 |----|
96
①口口口 |①---|
口②口口 |②---|
口口④口 |③---|
口口口③ |④---|
97
口口①① |①---|
口口口① |----|
口口口口 |----|
①口口口 |----|
98
①口口口 |①---|
口②口口 |②---|
口口④口 |③---|
口口口③ |④---|
99
口口①① |①---|
口口口① |----|
口口口口 |----|
①口口口 |----|
100
口口口口 |①---|
口②①口 |②---|
口④③口 |③---|
口口口口 |④---|
101
口口①① |①---|
口口口① |----|
口口口口 |----|
①口口口 |----|
102
口口口口 |①---|
①②口口 |②---|
口口④③ |③---|
口口口口 |④---|
103
口口①① |①---|
口口口① |----|
口口口口 |----|
①口口口 |----|
104
口①口口 |①---|
口口②口 |②---|
口③口口 |③---|
口口④口 |④---|
105
口口口① |①---|
口口口口 |----|
口口口口 |----|
口口口口 |----|
106
①口口① |----|
②口口② |①---|
③口口③ |②---|
口口口口 |③---|
107
口①①口 |①---|
口③②口 |②---③-|
口口④口 |----④-|
口⑤口口 |⑤---|
108
口口口口 |----|
口口口③ |①---|
口口口② |②---|
口口口① |③---|
109
口口口口 |①---|
口①②口 |----|
口②①口 |②---|
口口口口 |----|
110
口①②口 |①---|
口③③口 |----|
口③③口 |②---|
口②①口 |----③-|
111
口口口口 |----|
口口口口 |----|
口口口口 |①---|
①①①① |----|
112
口②①口 |①---|
口①②口 |----|
口口口口 |②---|
口口口口 |----|
113
口口口口 |①---|
①口口口 |----|
口口口口 |----|
口口①口 |----|
114
口口①① |①---|
口口口① |----|
口口口口 |----|
①口口口 |----|

不確定度: 0

最終更新:2016年04月12日 02:55