取り残された美術(Arranged:HiZuMi)
幽閉サテライト feat. Senya

EXTREME

Level: 9
BPM: 160
Notes: 693

1
口口口口 |----|
口口口口 |----|
口口口口 |----|
口口口口 |----|
2
口口口口 |①---|
口口口口 |--②-|
①②③口 |③---|
④口口口 |--④-|
3
⑥口口① |①-②-|
口②口⑤ |③-④-|
④口⑦口 |⑤-⑥-|
口⑧③口 |⑦-⑧-|
4
口④②① |①-②-|
口③口口 |③-④-|
口⑦口口 |⑤-⑥-|
口⑧⑥⑤ |⑦-⑧-|
5
④⑤口口 |①-②-|
⑤口口① |③-④-|
②口⑤口 |⑤---|
口口口③ |----|
6
⑦⑥①① |①-②-|
⑤口口⑤ |③-④-|
⑤②④⑤ |⑤---|
①①③③ |⑥-⑦-|
7
口⑥口口 |①--②|
③③⑤口 |--③-|
口②②口 |④---|
④④①① |⑤-⑥-|
8
④④①① |①---|
④④口口 |②---|
口口②② |③---|
③③②② |④---|
9
③③②② |①---|
④④口口 |②---|
口口②② |③---|
④④①① |④---|
10
口口④口 |①-②-|
口口口③ |③-④-|
口口②口
口口口①

⑥口口⑤
⑦口口口
⑧口口口 |⑤--⑥⑦⑧|
⑨口口⑩ |⑨-⑩-|
11
口⑥⑤口 |①-②-|
⑤①②⑥ |③-④-|
⑥③④⑤ |⑤---|
口⑤⑥口 |⑥---|
12
口口口② |①-②-|
⑤③口⑩ |③-④-|
⑨⑧⑦⑥ |⑤--⑥⑦⑧|
①口口④ |⑨-⑩-|
13
⑦⑦⑤⑤ |①-②-|
口②④口 |③-④-|
⑥⑥⑦⑦ |⑤-⑥-|
①口口③ |⑦---|
14
口口口口 |①-②-|
③口②口 |③-④-|
口口口口
口④口①

⑩口口⑥
口⑤口⑦
口口口⑧ |⑤--⑥⑦⑧|
口口口⑨ |⑨-⑩-|
15
口口口口 |①-②-|
口④③口 |③-④-|
口②口口
口口①口

口⑥⑤口
⑤口口⑥
⑥口口⑤ |⑤---|
口⑤⑥口 |⑥---|
16
③口④① |①-②-|
口口口口 |③-④-|
口②口口
口口口口

口口口⑦
口⑤口口
口口口口 |⑤-⑥-|
⑧口口⑥ |⑦-⑧-|
17
口②⑦口 |①②③④|
口⑥口③ |⑤⑥⑦⑧|
④⑧口①
口口⑤口

⑭口口⑪
⑩口口口
口口⑬⑮ |⑨⑩⑪⑫|
⑯⑫口⑨ |⑬⑭⑮⑯|
18
④④口口 |①---|
口口①① |②---|
③③口口 |③---|
口口②② |④---|
19
口口口口 |①---|
口口③② |②---|
口口口口 |③---|
口口④① |④---|
20
口①②口 |①---|
①③口口 |②-③-|
口④④口 |④---|
口口口口 |----|
21
口口口口 |①---|
②③口口 |②---|
口口口口 |③---|
①④口口 |④---|
22
④口①④ |①---|
口③口① |②-③-|
口口②口 |④---|
口口口口 |----|
23
口口①② |①---|
口④口② |②---|
④③口口 |③---|
口口口口 |④---|
24
①口口口 |①---|
口口②口 |②-③-|
口③口口 |④---|
口④④① |----|
25
④口口① |①---|
口④①口 |②-③-|
口口口口 |④---|
③⑤②⑥ |⑤-⑥-|
26
②口③① |①---|
⑤口①口 |②-③-|
⑥口口④ |④-⑤-|
⑦口④口 |⑥-⑦-|
27
③③②口 |--①-|
口口口② |②---|
④②口③ |③---|
口①④④ |④---|
28
口口①口 |①---|
口①②口 |②-③-|
口③⑥⑦ |④-⑤-|
①口④⑤ |⑥-⑦-|
29
①口①口 |①---|
②②①口 |②---|
口口口口
口口②口

口口④③
口口口口
③口③口 |③---|
④④口口 |④---|
30
口①口口 |①---|
口②口口 |②-③-|
⑦⑥③① |④-⑤-|
⑤④①口 |⑥-⑦-|
31
①口口① |①---|
口①②口 |②---|
口口口②
口②口口

口口口口
口④口③
口③④口 |③---|
③口④口 |④---|
32
①①①口 |①---|
③口口② |②-③-|
口口⑥⑦ |④-⑤-|
口口④⑤ |⑥-⑦-|
33
④④①① |①---|
口③⑥口 |②-③-|
口②⑤口 |④---|
①①④④ |⑤-⑥-|
34
②口①① |①---|
口口口口 |②-③-|
口口口口
①①口③

口⑤⑥口
口④口④
④口④口 |④-⑤-|
口⑦口口 |⑥-⑦-|
35
⑦⑤⑥② |①-②-|
⑤④②③ |③-④⑤|
口①③⑤ |--⑥-|
口口⑤⑧ |⑦-⑧-|
36
口口口④ |①--②|
②③口口 |--③-|
口②口口 |--④-|
①①③④ |----|
37
①⑤④⑥ |--①-|
②①③④ |②-③④|
④②口口 |--⑤-|
⑦④口口 |⑥-⑦-|
38
④口口口 |①--②|
口口③② |--③-|
口口②口 |--④-|
④③①① |----|
39
②①①② |①---|
①口口① |----|
口②②口 |②---|
口口口口 |----|
40
⑧①⑤口 |①-②-|
②⑦口⑤ |③-④-|
⑥③口① |⑤-⑥-|
④⑤①口 |⑦-⑧-|
41
④④②② |①---|
口口口口 |②---|
口口口口 |③---|
③③①① |④---|
42
⑩⑥⑤⑨ |①-②-|
口④①口 |③-④-|
口②③口 |⑤⑥⑦⑧|
⑫⑧⑦⑪ |⑨⑩⑪⑫|
43
④口③口 |①---|
②口口① |②---|
②口口① |③---|
口③口④ |④---|
44
口①口① |①---|
①②①口 |②-③-|
口口口口
②③口口

口口口口
口口⑤⑤
④④口口 |④---|
口口⑥口 |⑤-⑥-|
45
①①②③ |①-②-|
口口口口 |③-④-|
口口④口
③③口①

口口口口
⑤⑤⑥⑤
⑦⑦口口 |⑤-⑥-|
口口⑧⑦ |⑦-⑧-|
46
④②口③ |①-②-|
口口④口 |③-④-|
口口②①
①③口口

口⑧⑤口
口⑤口⑦
⑥⑦口口 |⑤-⑥-|
口口⑥⑧ |⑦-⑧-|
47
口口③① |①-②-|
②④口口 |③-④-|
口口①③
④②口口

⑥口口⑥
口口⑤口
口⑤口口 |⑤---|
口口口口 |⑥---|
48
口口口口 |①-②-|
口口口口 |③-④-|
②口口①
口④③口

⑤⑤⑤⑤
口口口⑥
口口口⑦ |⑤---|
口口口口 |⑥-⑦-|
49
口③③口 |①--②|
口②①口 |--③-|
口⑥⑤口 |④---|
②④④① |⑤-⑥-|
50
③③口① |①---|
④④口口 |②---|
⑤⑤口口 |③--④|
口口口② |--⑤-|
51
口口③① |①-②-|
口口口口 |③-④-|
口口口口
②④口口

⑥口口⑪
口⑩口口
⑧口⑨⑤ |⑤⑥⑦⑧|
⑫口⑦口 |⑨⑩⑪⑫|
52
口口①口 |①---|
⑤⑤②① |②-③-|
口口④④ |④---|
口⑥③② |⑤-⑥-|
53
①①②③ |①-②-|
⑤⑤⑥① |③-④-|
③③④⑤ |⑤-⑥-|
⑦⑦⑧⑦ |⑦-⑧-|
54
④①①③ |①-②-|
口口口口 |③-④-|
③②②④
口口口口

口⑦口口
⑥口⑤⑧
口⑧口口 |⑤-⑥-|
口⑤⑦⑥ |⑦-⑧-|
55
⑤⑥③① |①-②-|
④②⑧⑦ |③-④-|
口口①③ |⑤-⑥-|
②④口口 |⑦-⑧-|
56
口⑧⑤④ |①-②-|
⑦⑥口口 |③-④-|
③①⑤④ |⑤-⑥-|
⑦⑥口② |⑦-⑧-|
57
②口口口 |①--②|
口③③① |--③-|
①口口口
口口口②

口口口口
⑤口口⑥
口④口④ |④---|
④口④口 |⑤-⑥-|
58
④④①① |①---|
④④口口 |②---|
口口②② |③---|
③③②② |④---|
59
③③②② |①---|
④④口口 |②---|
口口②② |③---|
④④①① |④---|
60
⑤⑤口① |①-②-|
口口②口 |③-④-|
⑥⑦④口 |⑤--⑥|
⑦⑥口③ |--⑦-|
61
口⑤①④ |①---|
⑦③⑥① |②-③-|
口⑨②⑧ |④⑤⑥⑦|
⑪口⑩口 |⑧⑨⑩⑪|
62
②⑨①⑤ |①--②|
⑨②⑥① |--③-|
④⑦③口 |④--⑤⑥⑦|
⑧④口③ |⑧-⑨-|
63
⑪口②⑩ |①--②|
⑨③口⑧ |--③-|
⑦口口⑥ |④⑤⑥⑦|
⑤口①④ |⑧⑨⑩⑪|
64
⑦⑥口口 |①-②-|
⑥⑦①口 |③-④-|
口口④口 |⑤--⑥|
⑤⑤②③ |--⑦-|
65
口口①⑥ |①---|
⑦口⑥① |②③④⑤|
口⑤④口 |⑥-⑦-|
⑨③②⑧ |⑧-⑨-|
66
口①⑦口 |①--②|
⑨⑩⑪⑫ |③④⑤⑥|
⑥⑤④③ |⑦--⑧|
口⑧②口 |⑨⑩⑪⑫|
67
①②口口 |①-②-|
口口口口 |③④-⑤|
口④③口 |⑥---|
口⑤⑥口 |----|
68
口口①① |①---|
④④口口 |②---|
口口②② |③---|
③③口口 |④---|
69
口①①口 |①---|
口口口口 |----|
①口口① |----|
口口口口 |----|

不確定度: 0

最終更新:2016年04月18日 00:35