Scarlet Moon
REDALiCE feat. Ayumi Nomiya

EXTREME

Level: 9
BPM: 180
Notes: 650

1
口口口口 |----|
口口口口 |----|
口口口口 |----|
口口口口 |----|
2
口口口口 |①---|
口②①口 |----|
口口口口 |②---|
口口口口 |----|
3
口口口口 |①---|
口口口口 |----|
口①②口 |②---|
口口口口 |----|
4
口④③口 |①---|
口口口② |②---|
口口口① |③---|
口口口口 |④---|
5
⑦⑦⑧⑧ |①-②-|
①口口⑥ |③-④-|
②口口⑤ |⑤-⑥-|
口③④口 |⑦-⑧-|
6
口口口口 |①---|
②口口口 |--②-|
①①口口
②口口口

口口⑤口
口④口③
⑥⑥口口 |③-④⑤|
口口口③ |--⑥-|
7
⑤⑤⑥⑥ |--①-|
口③①口 |--②-|
口口④口 |--③④|
口口②口 |⑤-⑥-|
8
口口口口 |①---|
②口口口 |--②-|
①①口口
②口口口

口口⑤口
口④口③
⑥⑥口口 |③-④⑤|
口口口③ |--⑥-|
9
⑤⑤⑥⑥ |--①-|
口③①口 |--②-|
口口④口 |--③④|
口口②口 |⑤-⑥-|
10
口口口口 |①---|
②口口口 |--②-|
①①口口
②口口口

口口⑤口
口④口③
⑥⑥口口 |③-④⑤|
口口口③ |--⑥-|
11
⑤⑤⑥⑥ |--①-|
口③①口 |--②-|
口口④口 |--③④|
口口②口 |⑤-⑥-|
12
口口⑦口 |①-②-|
⑦⑤④③ |③-④-|
①②⑥⑦ |--⑤-|
口⑦口口 |⑥-⑦-|
13
②①口口 |--①-|
口口口口 |--②-|
③口④口 |--③-|
口⑤口口 |④-⑤-|
14
口②口口 |①---|
④③③口 |--②-|
口②口口 |③---|
④口口① |--④-|
15
口口口口 |①---|
口口口口 |----|
口口口口
口①①口

口口口口
口口口口
②口③口 |--②-|
口④口口 |③-④-|
16
口②口口 |①---|
④③③口 |--②-|
口②口口 |③---|
④口口① |--④-|
17
口口口口 |①---|
口④口口 |----|
口口③口 |--②-|
口①①② |③-④-|
18
①①①② |①---|
口口③口 |----|
口④口口 |--②-|
口口口口 |③-④-|
19
口②口口 |①---|
口④③口 |----|
口口口口 |--②-|
①①①口 |③-④-|
20
口④①口 |①---|
②口口口 |--②-|
口④①口 |③---|
②③③口 |--④-|
21
口口口口 |①---|
口①①口 |----|
口③口口 |----|
口②口口 |②-③-|
22
①②①③ |①-②-|
口④⑦⑤ |③-④-|
口口口口 |⑤--⑥|
口口口⑥ |--⑦-|
23
①②①③ |①-②-|
⑦④⑦⑤ |③-④-|
口口口口 |⑤--⑥|
口口口⑥ |--⑦-|
24
①口①口 |①--②|
⑦②⑦④ |--③-|
口⑤口口 |④-⑤⑥|
口口③⑥ |--⑦-|
25
①②①口 |①---|
口③口口 |----|
口口口口 |----|
口口口口 |②-③-|
26
口口⑤⑦ |①-②-|
口口口口 |③-④-|
口④②口 |⑤--⑥|
口③①⑥ |--⑦-|
27
⑦⑤口口 |①-②-|
①②口口 |③-④-|
口口④③ |⑤--⑥|
⑥口口口 |--⑦-|
28
口④口③ |①--②|
②⑤①⑤ |--③-|
④口③口 |④--⑤|
⑥②⑥① |--⑥-|
29
口口口口 |①---|
①口①口 |----|
口①口① |----|
口口口口 |----|
30
③④④② |①--②|
⑤①口口 |--③-|
口⑥①口 |④---|
②④④③ |⑤-⑥-|
31
⑦口口① |①---|
口⑤口② |②-③-|
①口口④ |④--⑤|
④③口⑥ |⑥-⑦-|
32
④口④口 |①---|
口⑤③口 |②---|
口口②口 |③---|
口口①口 |④-⑤-|
33
口①口① |①---|
④⑤口② |②-③-|
口③口④ |④--⑤|
⑦口口⑥ |⑥-⑦-|
34
口口④口 |①---|
口⑤③口 |②---|
④口②口 |③---|
口口①口 |④-⑤-|
35
口③口① |①---|
口口口② |②-③-|
口①口口
口口口口

④口口口
口口口口
口⑦口④ |④--⑤|
⑤口口⑥ |⑥-⑦-|
36
口口口口 |①---|
口④③⑤ |②---|
口口②口 |③---|
口口①口 |④-⑤-|
37
⑤口口⑤ |①-②-|
⑥⑥⑥⑥ |③-④-|
④③口④ |--⑤-|
①口②口 |--⑥-|
38
口②②口 |--①-|
口口④口 |②---|
②③口② |----|
①①①① |③-④-|
39
④③口① |①---|
①口口② |②-③-|
口⑦口④ |④--⑤|
⑤口口⑥ |⑥-⑦-|
40
口口④口 |①---|
口⑤③口 |②---|
④口②口 |③---|
口口①口 |④-⑤-|
41
口③口① |①---|
口口口② |②-③-|
口①口口
口口口口

④口口口
口口口口
口⑦口④ |④--⑤|
⑤口口⑥ |⑥-⑦-|
42
④口④口 |①---|
口⑤③口 |②---|
口口②口 |③---|
口口①口 |④-⑤-|
43
口④口⑤ |①---|
③⑥口口 |②-③-|
口②②② |④--⑤|
口①①① |--⑥-|
44
③⑧口⑦ |①---|
④口口口 |②---|
⑤②②② |③④⑤⑥|
⑥①①① |⑦-⑧-|
45
⑤口④口 |①-②-|
口②口① |③-④-|
口口口③ |--⑤-|
⑥④⑥⑤ |--⑥-|
46
口①口① |--①-|
口口②口 |②---|
②口口② |----|
口②口口 |----|
47
口口口口 |①---|
口口口口 |----|
口口口口 |②---|
②口口① |----|
48
①口口② |①---|
口口口口 |----|
口口口口 |②---|
口口口口 |----|
49
口口口口 |①---|
④口口口 |②---|
③口口口 |③---|
口②①口 |④---|
50
⑨①②⑩ |①-②-|
口⑦⑧③ |③-④-|
口⑥⑤④ |⑤⑥⑦⑧|
口口口口 |⑨-⑩-|
51
⑤⑥口⑦ |①-②-|
①口口③ |--③-|
①口口③ |④--⑤|
④④②② |⑥-⑦-|
52
⑨⑩⑪⑫ |①②③④|
⑤⑥⑦⑧ |⑤⑥⑦⑧|
①②③④ |⑨⑩⑪⑫|
⑬⑭⑮⑯ |⑬⑭⑮⑯|
53
⑦③口⑤ |①-②-|
口⑥口③ |--③-|
④①①② |④-⑤⑥|
口口⑦口 |--⑦-|
54
口口③⑤ |--①-|
口⑤②口 |--②-|
④口①口 |--③-|
口口口口 |④-⑤-|
55
④③口口 |①-②-|
口⑦口② |--③-|
⑥①口③ |④-⑤⑥|
口口⑦⑤ |--⑦-|
56
④⑤③④ |--①-|
口口②口 |--②-|
口口①口 |--③-|
口口口口 |④-⑤-|
57
⑤口口口 |①-②-|
①②④① |③-④-|
③口口③ |--⑤-|
⑥④⑥⑤ |--⑥-|
58
④①④① |--①-|
口③②口 |②---|
②口口② |----|
口②口口 |③-④-|
59
⑦①口② |①-②-|
口⑥口③ |--③-|
口口口⑤ |④-⑤⑥|
④③口⑦ |--⑦-|
60
口口⑤口 |--①-|
口⑤③口 |--②-|
④口②口 |--③-|
口口①口 |④-⑤-|
61
④③口② |①-②-|
口⑦口③ |--③-|
⑥①口⑤ |④-⑤⑥|
口口口⑦ |--⑦-|
62
④口④口 |--①-|
口⑤③口 |--②-|
口口②口 |--③-|
口口①口 |④-⑤-|
63
口④口⑤ |①---|
③⑥口口 |②-③-|
口②②② |④--⑤|
口①①① |--⑥-|
64
③⑧口⑦ |①---|
④口口口 |②---|
⑤②②② |③④⑤⑥|
⑥①①① |⑦-⑧-|
65
⑤口④口 |①-②-|
口②口① |③-④-|
口口口③ |--⑤-|
⑥④⑥⑤ |--⑥-|
66
③①④① |--①-|
口口②口 |②---|
②口口② |----|
口②口口 |③-④-|
67
口口口口 |①---|
②④口口 |--②-|
口①口⑤ |③--④|
口口③口 |--⑤-|
68
⑤⑤⑥⑥ |--①-|
口③①口 |--②-|
口口④口 |--③④|
口口②口 |⑤-⑥-|
69
口口口口 |①-②-|
④口②口 |③-④-|
①①口③
④口口口

口口⑦口
口⑥口⑤
⑧⑧口口 |⑤-⑥⑦|
口口口⑤ |--⑧-|
70
⑤⑤⑥⑥ |--①-|
口③①口 |--②-|
口口④口 |--③④|
口口②口 |⑤-⑥-|
71
口口口口 |①-②-|
④口②口 |③-④-|
①①口③
④口口口

口口⑦口
口⑥口⑤
⑧⑧口口 |⑤-⑥⑦|
口口口⑤ |--⑧-|
72
⑤⑤⑥⑥ |--①-|
口③①口 |--②-|
口口④口 |--③④|
口口②口 |⑤-⑥-|
73
口口⑦口 |①-②-|
⑦⑤④③ |③-④-|
①②⑥⑦ |--⑤-|
口⑦口口 |⑥-⑦-|
74
④④⑤⑤ |--①-|
口口口口 |--②-|
口口③口 |--③-|
口口②① |④-⑤-|
75
口口口口 |①-②-|
④口②口 |③-④-|
①①口③
④口口口

口口⑦口
口⑥口⑤
⑧⑧口口 |⑤-⑥⑦|
口口口⑤ |--⑧-|
76
⑤⑤⑥⑥ |--①-|
口③①口 |--②-|
口口④口 |--③④|
口口②口 |⑤-⑥-|
77
口口口口 |①-②-|
④口②口 |③-④-|
①①口③
④口口口

口口⑦口
口⑥口⑤
⑧⑧口口 |⑤-⑥⑦|
口口口⑤ |--⑧-|
78
⑤③⑥② |--①-|
口口④口 |--②-|
口口口① |--③④|
口口口口 |⑤-⑥-|
79
⑦口⑥④ |①-②-|
③⑤口口 |--③-|
口②②② |④-⑤⑥|
口①①① |--⑦-|
80
口④⑦⑦ |①-②-|
⑥⑥⑤③ |--③-|
口②②② |--④⑤|
口①①① |⑥-⑦-|
81
口口⑦口 |①-②-|
⑦⑤口口 |③-④-|
①②⑥⑦ |--⑤-|
口⑦④③ |⑥-⑦-|
82
口口口① |--①-|
口口②口 |--②-|
口③口口 |--③-|
④口口口 |--④-|

不確定度: 0

最終更新:2016年04月18日 00:34