Struggle
Masayoshi Minoshima(ALR)

EXTREME

Level: 9
BPM: 180
Notes: 823

1
口口口口 |----|
口口口口 |----|
口口口口 |----|
口口口口 |----|
2
口口口口 |----|
口口口口 |----|
口口口口 |----|
口口口口 |----|
3
①⑧⑨① |①-②③|
⑥④⑤⑦ |④⑤⑥⑦|
⑩⑪⑫口 |⑧⑨⑩⑪|
口②③口 |⑫---|
4
口口口① |①-②-|
口③③口 |③-④-|
口口口②
①口④口

⑦口⑤⑧
口口口口
口口⑦口 |⑤-⑥-|
口⑤口⑥ |⑦-⑧-|
5
⑧口④口 |①-②-|
口③⑤⑦ |③-④⑤|
口口⑨② |⑥-⑦-|
①⑥⑥⑧ |⑧-⑨-|
6
口口口① |①-②-|
口③③口 |③-④-|
口口口②
①口④口

⑦口⑤⑧
口口口⑦
口口口口 |⑤-⑥-|
口⑤口⑥ |⑦-⑧-|
7
⑧口④口 |①-②-|
口③⑤⑦ |③-④⑤|
口口⑧② |⑥-⑦-|
①⑥⑥⑨ |⑧-⑨-|
8
口口口① |①-②-|
口③③口 |③-④-|
口口口②
①口④口

⑦口⑤⑧
口口口⑦
口口⑥口 |⑤-⑥-|
口⑤口口 |⑦-⑧-|
9
⑧口④口 |①-②-|
口③⑤⑦ |③-④⑤|
口口⑨② |⑥-⑦-|
①⑥⑥⑧ |⑧-⑨-|
10
口口③① |①---|
①③④口 |②---|
口口口② |③-④-|
②⑤口⑥ |⑤-⑥-|
11
①⑤⑥口 |①-②-|
口口口② |③-④-|
③⑦⑦口 |⑤-⑥-|
口口④口 |⑦---|
12
①口口① |①-②-|
口③③口 |③-④-|
②口口②
口④④口

⑧⑤⑤⑧
⑦口口⑦
口口口口 |⑤-⑥-|
⑥口口⑥ |⑦-⑧-|
13
口口④口 |--①-|
⑤③②⑥ |--②③|
①⑦④① |④-⑤-|
⑤口口⑥ |⑥-⑦-|
14
①口口① |①-②-|
口③③口 |③-④-|
②口口②
口④④口

⑧⑤⑤⑧
口口口口
口⑦⑦口 |⑤-⑥-|
⑥口口⑥ |⑦-⑧-|
15
口⑧⑤口 |--①-|
⑥②③⑨ |--②③|
①⑩⑪① |④⑤⑥⑦|
口④口⑦ |⑧⑨⑩⑪|
16
口口口① |①-②-|
口③③口 |③-④-|
口口口②
①口④口

⑦口⑤⑧
口口口口
口口口口 |⑤-⑥-|
口⑤口⑥ |⑦-⑧-|
17
⑧③④口 |①-②-|
口口⑤⑧ |③-④⑤|
口口⑨② |⑥-⑦-|
①⑥⑥⑦ |⑧-⑨-|
18
⑤②③① |①---|
口口④口 |②---|
口口口② |③-④-|
①③⑥口 |⑤-⑥-|
19
口⑨⑩② |①-②-|
③⑦⑧⑥ |③-④-|
口口口④ |⑤-⑥-|
①⑤口口 |⑦⑧⑨⑩|
20
口口口口 |①---|
口口口口 |②---|
②③口口 |③---|
①④①口 |④---|
21
口口口口 |①---|
口口口口 |②---|
②③④口 |③---|
①④③口 |④---|
22
口口①口 |①---|
口口②③ |②-③-|
②④口⑤ |④-⑤-|
①⑥⑦口 |⑥-⑦-|
23
口口口③ |①---|
口口④口 |②---|
②③口口 |③---|
①④口口 |④---|
24
口口⑦口 |①---|
口口口⑤ |②-③-|
②④②③ |④-⑤-|
①⑥口① |⑥-⑦-|
25
口口口口 |①---|
口口口口 |②---|
②③④口 |③---|
①④③口 |④---|
26
口口①⑦ |①---|
口口②③ |②-③-|
②④口口 |④-⑤-|
①⑥口⑤ |⑥-⑦-|
27
口口口口 |①---|
口④④口 |②---|
②③③口 |③---|
①口口口 |④---|
28
①②口③ |①-②-|
口口口口 |③---|
口口④③ |④---|
口口⑤口 |⑤---|
29
口口口口 |①---|
口口口口 |②---|
口④③② |③---|
口③④① |④---|
30
口①口口 |①---|
③②口口 |②-③-|
⑤口④② |④-⑤-|
口⑦⑥① |⑥-⑦-|
31
口口口口 |①---|
口口口口 |②---|
④口③② |③---|
③口④① |④---|
32
口①口口 |①---|
②③口② |②-③-|
口口口口
口口口①

口⑦口口
口口④口
口⑤口口 |④-⑤-|
口口⑥口 |⑥-⑦-|
33
口口口口 |①---|
口口③② |②---|
口④口口 |③---|
口③④① |④---|
34
口①⑦口 |①---|
口②④② |②-③-|
口⑤口口 |④-⑤-|
口③⑥① |⑥-⑦-|
35
③⑤口口 |①-②-|
①⑦⑧⑨ |③-④-|
③⑤②④ |⑤-⑥-|
①口⑥口 |⑦⑧⑨-|
36
口口口③ |①---|
口④口口 |--②-|
口口口口 |③---|
①①口② |--④-|
37
口口③③ |①---|
口口④口 |②---|
口口口口 |③-④-|
①①②② |----|
38
口口③③ |①---|
口④口口 |--②-|
①口口口 |③---|
口①口② |--④-|
39
口口③③ |①---|
口口④口 |②---|
口⑤口口 |③-④-|
①①②② |--⑤-|
40
口口口③ |①---|
口④口口 |--②-|
口口口口 |③---|
①①口② |--④-|
41
口口③③ |①---|
口口④口 |②---|
口口口口 |③-④-|
①①②② |----|
42
口口口③ |①---|
口口口口 |--②-|
①口口④ |③---|
口①口② |--④-|
43
①⑨⑤⑬ |①②③④|
②⑩⑥⑭ |⑤⑥⑦⑧|
③⑪⑦⑮ |⑨⑩⑪⑫|
④⑫⑧⑯ |⑬⑭⑮⑯|
44
④口④口 |①---|
③口口口 |②---|
②口②口 |③---|
①口口口 |④---|
45
④口④口 |①---|
③口口口 |②---|
②口②口 |③---|
①口口口 |④---|
46
④口口④ |①---|
③口③口 |②---|
②口口② |③---|
①口①口 |④---|
47
④口口④ |①---|
③口③口 |②---|
②口口② |③---|
①口①口 |④---|
48
口⑤⑥口 |①-②-|
④口口⑦ |③-④-|
③口口⑧ |⑤-⑥-|
口②①口 |⑦-⑧-|
49
口⑤⑥口 |①-②-|
④口口⑦ |③-④-|
③口口⑧ |⑤-⑥-|
口②①口 |⑦-⑧-|
50
口⑥⑤口 |①-②-|
口③④口 |③-④-|
⑧②①⑦ |⑤-⑥-|
口口口口 |⑦-⑧-|
51
⑯⑮⑩⑨ |①②③④|
⑧⑦⑥⑤ |⑤⑥⑦⑧|
⑫⑪⑭⑬ |⑨⑩⑪⑫|
④③②① |⑬⑭⑮⑯|
52
⑤⑤⑤⑤ |①---|
③③③③ |②---|
④④④④ |③---|
②②①① |④-⑤-|
53
口口口口 |--①-|
口③③口 |②-③-|
口④⑤⑥ |--④-|
①②②① |⑤-⑥-|
54
⑥口口① |①-②-|
口口③③ |③-④-|
④⑧⑦口 |⑤-⑥-|
②口口⑤ |⑦-⑧-|
55
⑧⑦②① |①②③④|
④③⑥⑤ |⑤⑥⑦⑧|
⑯⑮⑩⑨ |⑨⑩⑪⑫|
⑫⑪⑭⑬ |⑬⑭⑮⑯|
56
②②①① |①---|
②②③③ |②---|
口口③③ |③---|
⑤④④⑤ |④-⑤-|
57
①②②① |--①-|
口③③口 |②-③-|
⑤⑥⑦⑧ |--④-|
口口④口 |⑤⑥⑦⑧|
58
③③口口 |①---|
口口口② |--②-|
口口口④ |③---|
①①口口 |-④--|
59
口口口口 |①---|
口口口口 |②---|
②②口口
①①口口

口口口口
⑥⑤④③
口口口口 |③④⑤⑥|
⑩⑨⑧⑦ |⑦⑧⑨⑩|
60
口④①① |①-②-|
⑧口口⑤ |③-④-|
②⑥口③ |⑤-⑥-|
口口口⑦ |⑦-⑧-|
61
口口①① |①-②-|
⑧口口⑤ |③-④-|
口⑥口③ |⑤-⑥-|
④②口⑦ |⑦-⑧-|
62
口④①① |①-②-|
口⑧⑤口 |③-④-|
⑥口③口 |⑤-⑥-|
口②⑦口 |⑦-⑧-|
63
口口③口 |①②③④|
④口口⑦ |⑤⑥⑦⑧|
口⑥⑤①
②⑧口口

⑩⑭口口
口口⑪口
⑫口口⑮ |⑨⑩⑪⑫|
⑯口⑬⑨ |⑬⑭⑮⑯|
64
口口①① |①-②-|
⑧②⑤⑤ |③-④-|
口⑥③口 |⑤-⑥-|
口④⑦口 |⑦-⑧-|
65
口⑧①① |①-②-|
口②⑤⑤ |③-④-|
口⑥③口 |⑤-⑥-|
口④⑦口 |⑦-⑧-|
66
②口①① |①-②-|
口口⑦口 |③-④-|
④口③⑤ |⑤-⑥-|
⑥⑧口⑤ |⑦-⑧-|
67
口⑧①① |①-②-|
口④口⑤ |③-④-|
⑥②⑤口 |⑤-⑥-|
口口③⑦ |⑦-⑧-|
68
口口口① |①-②-|
口③③口 |③-④-|
口口口②
①口④口

⑦口⑤⑧
口口口口
口口⑦口 |⑤-⑥-|
口⑤口⑥ |⑦-⑧-|
69
⑧口④口 |①-②-|
口③⑤⑦ |③-④⑤|
口口⑨② |⑥-⑦-|
①⑥⑥⑧ |⑧-⑨-|
70
口口口① |①-②-|
口③③口 |③-④-|
口口口②
①口④口

⑦口⑤⑧
口口口⑦
口口口口 |⑤-⑥-|
口⑤口⑥ |⑦-⑧-|
71
⑧口④口 |①-②-|
口③⑤⑦ |③-④⑤|
口口⑨② |⑥-⑦-|
①⑥⑥⑧ |⑧-⑨-|
72
口口口① |①-②-|
口③③口 |③-④-|
口口口②
①口④口

⑦口⑤⑧
口口口⑦
口口口口 |⑤-⑥-|
口⑤口⑥ |⑦-⑧-|
73
⑧口④口 |①-②-|
口③⑤⑦ |③-④⑤|
口口⑨② |⑥-⑦-|
①⑥⑥⑧ |⑧-⑨-|
74
口口③① |①---|
①③④口 |②---|
口口口② |③-④-|
②⑤口⑥ |⑤-⑥-|
75
①⑦⑥口 |①-②-|
⑤口口② |③-④-|
③口⑦口 |⑤-⑥-|
口口④口 |⑦---|
76
口口口① |①-②-|
口口③口 |③-④-|
③③口②
①①④口

⑦⑦⑤⑧
⑤⑤口口
口口⑦口 |⑤-⑥-|
口口口⑥ |⑦-⑧-|
77
⑧⑧④口 |①-②-|
⑥⑥⑤⑦ |③-④⑤|
③③⑨② |⑥-⑦-|
①①⑥⑧ |⑧-⑨-|
78
口口口① |①-②-|
口口③口 |③-④-|
③③口②
①①④口

⑦⑦⑤⑧
⑤⑤口⑦
口口口口 |⑤-⑥-|
口口口⑥ |⑦-⑧-|
79
⑧⑧④口 |①-②-|
⑥⑥⑤⑦ |③-④⑤|
③③⑨② |⑥-⑦-|
①①⑥⑧ |⑧-⑨-|
80
口口口① |①-②-|
口口③口 |③-④-|
③④口②
①②④口

⑦⑧⑤⑧
⑤⑥口⑦
口口口口 |⑤-⑥-|
口口口⑥ |⑦-⑧-|
81
⑧⑨④口 |①-②-|
⑥⑦⑤⑦ |③-④⑤|
③④⑨② |⑥-⑦-|
①②⑥⑧ |⑧-⑨-|
82
⑦⑧⑤① |①-②-|
⑤⑥⑥口 |③-④-|
③④口③ |⑤-⑥-|
①②口⑧ |⑦-⑧-|
83
⑦⑧⑥口 |①-②-|
⑤⑥口② |③-④-|
③④⑦口 |⑤-⑥-|
①②④口 |⑦-⑧-|
84
口口口口 |①---|
口口口口 |----|
口口口口 |----|
①口口① |----|

不確定度: 0

最終更新:2016年04月18日 00:37